<?xml version="1.0" standalone="no"?>
<!DOCTYPE svg PUBLIC "-//W3C//DTD SVG 1.1//EN" "http://www.w3.org/Graphics/SVG/1.1/DTD/svg11.dtd" >
<svg xmlns="http://www.w3.org/2000/svg" xmlns:xlink="http://www.w3.org/1999/xlink" version="1.1">
<metadata>
Created by FontForge 20201107 at Thu Jul 22 19:47:27 2021
 By 
Copyright 2019 The Manrope Project Authors (https://github.com/sharanda/manrope)
</metadata>
<defs>
<font id="Manrope-Bold" horiz-adv-x="1251" >
  <font-face 
    font-family="Manrope"
    font-weight="700"
    font-stretch="normal"
    units-per-em="2000"
    panose-1="0 0 0 0 0 0 0 0 0 0"
    ascent="1600"
    descent="-400"
    x-height="1080"
    cap-height="1440"
    bbox="-305 -610 2504 2394.56"
    underline-thickness="50"
    underline-position="-125"
    unicode-range="U+000D-FB02"
  />
<missing-glyph horiz-adv-x="1480" 
d="M200 0v114h1080v-114h-1080zM200 144v80h1080v-80h-1080zM200 260v74h1080v-74h-1080zM200 374v70h1080v-70h-1080zM200 490v66h1080v-66h-1080zM200 606v60h1080v-60h-1080zM200 720v56h1080v-56h-1080zM200 838v48h1080v-48h-1080zM200 952v44h1080v-44h-1080z
M200 1066v42h1080v-42h-1080zM200 1184v36h1080v-36h-1080zM200 1298v32h1080v-32h-1080zM200 1414v26h1080v-26h-1080z" />
    <glyph glyph-name="parenleft_c_parenright.liga" unicode="&#x28;c&#x29;" horiz-adv-x="1973" 
d="M986 -118q-171 0 -321 64t-263.5 177.5t-177.5 263.5t-64 321t64.5 321t177.5 263.5t263 177.5t321 64q172 0 321.5 -64t263 -177.5t178 -263t64.5 -321.5q0 -171 -64.5 -321t-178 -263.5t-263 -177.5t-321.5 -64zM1002 282q-100 0 -172 31.5t-128 101.5
q-52 66 -75 139.5t-23 154.5q0 84 24.5 157.5t73.5 133.5q55 68 129 101.5t180 33.5q56 0 103.5 -11t97.5 -42q54 -33 94 -85t56 -122l-184 -50q-8 28 -24.5 53.5t-41.5 46.5q-24 20 -52.5 29t-58.5 9q-49 0 -86.5 -19.5t-65.5 -53.5q-29 -37 -39.5 -84.5t-10.5 -96.5
q0 -50 11.5 -96.5t38.5 -83.5q26 -36 64.5 -55t90.5 -19q72 0 111 35q23 21 36 42.5t23 48.5l188 -40q-18 -58 -51 -107.5t-80 -84.5q-45 -33 -99 -50t-130 -17zM986 108q125 0 233.5 46.5t191 129t129 191.5t46.5 233q0 125 -46.5 233.5t-129 191t-191 129t-233.5 46.5
q-124 0 -233 -46.5t-191.5 -129t-129 -191t-46.5 -233.5q0 -124 46.5 -233t129 -191.5t191.5 -129t233 -46.5z" />
    <glyph glyph-name="space_less_three_space.liga" unicode="&#x20;&#x3c;&#x33;&#x20;" horiz-adv-x="2322" 
d="M1160 -30q-79 0 -135 59l-351 370q-75 81 -100 176.5t-8 189.5t69.5 172.5t134.5 125.5t186 47q106 0 204 -60q57 34 109.5 47t96.5 13q104 0 186 -47.5t135 -126.5t69.5 -173t-9 -189t-99.5 -175l-349 -370q-57 -59 -139 -59zM1160 161l351 368q52 54 61 121t-15 129
t-74 102t-117 40q-49 0 -101 -27.5t-105 -84.5q-104 112 -204 112q-69 0 -118.5 -41t-72.5 -103.5t-13 -129.5t60 -118z" />
    <glyph glyph-name="prnleft_grtr_prnright.liga" unicode="&#x28;&#x3e;&#x29;" horiz-adv-x="2300" 
d="M1010 1070l420 -350l-420 -350v700zM1151 -44q-160 0 -298.5 59.5t-243 164t-164 243.5t-59.5 298q0 158 59.5 296.5t164 243t243 164t298.5 59.5q158 0 296.5 -59.5t243 -164t164 -243t59.5 -296.5q0 -160 -59.5 -298.5t-164 -243t-243 -164t-296.5 -59.5zM1150 -270
q205 0 385 77t316 213t212.5 315.5t76.5 384.5t-76.5 385t-212.5 316t-316 212.5t-385 76.5t-384.5 -76.5t-315.5 -212.5t-213 -316t-77 -385t77 -384.5t213 -315.5t315.5 -213t384.5 -77z" />
    <glyph glyph-name="f_f" unicode="ff" horiz-adv-x="1429" 
d="M234 0v1097q0 41 3 90.5t17 98.5t51 89q46 51 99.5 70.5t105.5 22t91 2.5h135v-196h-125q-69 0 -102.5 -34.5t-33.5 -90.5v-1149h-241zM60 891v189h676v-189h-676zM907 0v1097q0 41 3 90.5t17 98.5t51 89q46 51 99.5 70.5t105.5 22t91 2.5h135v-196h-125
q-69 0 -102.5 -34.5t-33.5 -90.5v-1149h-241zM733 891v189h676v-189h-676z" />
    <glyph glyph-name="f_f_l" unicode="ffl" horiz-adv-x="2052" 
d="M1393 891v189h270v-189h-270zM907 0v1097q0 41 3 90.5t17 98.5t51 89q46 51 99.5 70.5t105.5 22t91 2.5h135v-196h-125q-69 0 -102.5 -34.5t-33.5 -90.5v-1149h-241zM733 891v189h676v-189h-676zM1651 0v1470h241v-1470h-241zM234 0v1097q0 41 3 90.5t17 98.5t51 89
q46 51 99.5 70.5t105.5 22t91 2.5h135v-196h-125q-69 0 -102.5 -34.5t-33.5 -90.5v-1149h-241zM60 891v189h676v-189h-676z" />
    <glyph glyph-name="t_t.liga" unicode="tt" horiz-adv-x="1613" 
d="M773 0q-107 -20 -209.5 -17.5t-183.5 38t-123 112.5q-37 70 -39 143t-2 165v939h240v-925q0 -65 1.5 -114t20.5 -80q36 -60 115 -67t180 8v-202zM20 891v189h753v-189h-753zM1519 0q-107 -20 -209.5 -17.5t-183.5 38t-123 112.5q-37 70 -39 143t-2 165v939h240v-925
q0 -65 1.5 -114t20.5 -80q36 -60 115 -67t180 8v-202zM766 891v189h753v-189h-753z" />
    <glyph glyph-name="fi" unicode="fi" horiz-adv-x="1347" 
d="M234 0v1097q0 41 3 90.5t17 98.5t51 89q46 51 99.5 70.5t105.5 22t91 2.5h135v-196h-125q-69 0 -102.5 -34.5t-33.5 -90.5v-1149h-241zM60 891v189h676v-189h-676zM946 1244v221h241v-221h-241zM946 0v1080h241v-1080h-241z" />
    <glyph glyph-name="fl" unicode="fl" horiz-adv-x="1379" 
d="M720 891v189h270v-189h-270zM234 0v1097q0 41 3 90.5t17 98.5t51 89q46 51 99.5 70.5t105.5 22t91 2.5h135v-196h-125q-69 0 -102.5 -34.5t-33.5 -90.5v-1149h-241zM60 891v189h676v-189h-676zM978 0v1470h241v-1470h-241z" />
    <glyph glyph-name="hyphen_hyphen.liga" unicode="&#x2d;&#x2d;" horiz-adv-x="1080" 
d="M120 536v189h840v-189h-840z" />
    <glyph glyph-name="hyphen_greater.liga" unicode="&#x2d;&#x3e;" horiz-adv-x="2023" 
d="M280 536v189h1138l-270 270l115 115l480 -480l-480 -480l-115 115l271 271h-1139z" />
    <glyph glyph-name="less_hyphen.liga" unicode="&#x3c;&#x2d;" horiz-adv-x="2023" 
d="M1743 536h-1139l271 -271l-115 -115l-480 480l480 480l115 -115l-270 -270h1138v-189z" />
    <glyph glyph-name=".notdef" horiz-adv-x="1480" 
d="M200 0v114h1080v-114h-1080zM200 144v80h1080v-80h-1080zM200 260v74h1080v-74h-1080zM200 374v70h1080v-70h-1080zM200 490v66h1080v-66h-1080zM200 606v60h1080v-60h-1080zM200 720v56h1080v-56h-1080zM200 838v48h1080v-48h-1080zM200 952v44h1080v-44h-1080z
M200 1066v42h1080v-42h-1080zM200 1184v36h1080v-36h-1080zM200 1298v32h1080v-32h-1080zM200 1414v26h1080v-26h-1080z" />
    <glyph glyph-name=".null" horiz-adv-x="0" 
 />
    <glyph glyph-name="nonmarkingreturn" horiz-adv-x="666" 
 />
    <glyph glyph-name="CR" unicode="&#xd;" horiz-adv-x="1200" 
 />
    <glyph glyph-name="space" unicode=" " horiz-adv-x="400" 
 />
    <glyph glyph-name="exclam" unicode="!" horiz-adv-x="721" 
d="M240 0v221h241v-221h-241zM240 360v1080h241v-1080h-241z" />
    <glyph glyph-name="quotedbl" unicode="&#x22;" horiz-adv-x="934" 
d="M120 1080v360h241v-360h-241zM493 1080v360h241v-360h-241z" />
    <glyph glyph-name="numbersign" unicode="#" horiz-adv-x="1863" 
d="M377 2l106 390h-363l60 227h363l62 235h-363l62 226h362l97 360h235l-98 -360h246l97 360h235l-98 -360h363l-61 -226h-362l-64 -235h363l-61 -227h-362l-104 -390h-235l104 390h-245l-104 -390h-235zM778 619h244l63 235h-245z" />
    <glyph glyph-name="dollar" unicode="$" horiz-adv-x="1256" 
d="M517 -199v237h241v-237h-241zM517 1401v237h241v-237h-241zM643 -30q-152 0 -272 56t-196.5 158t-97.5 242l238 38q28 -123 120.5 -195.5t221.5 -72.5q124 0 204 58.5t80 148.5q0 63 -38 102.5t-122 65.5l-347 108q-303 94 -303 368q0 128 61.5 223.5t173.5 147t264 50.5
q141 -1 251.5 -51t184 -143.5t104.5 -226.5l-247 -45q-14 71 -55 125t-103 84t-138 32q-73 1 -131 -22.5t-92 -66t-34 -95.5q0 -59 47.5 -101t150.5 -72l259 -75q187 -54 269.5 -146.5t82.5 -245.5q0 -134 -67 -235t-188 -157.5t-281 -56.5z" />
    <glyph glyph-name="percent" unicode="%" horiz-adv-x="1801" 
d="M340 0l-160 160l1281 1280l160 -161zM1321 -30q-99 0 -180.5 48.5t-130.5 130t-49 181.5q0 98 50 180t132 131t178 49q99 0 181 -48.5t130.5 -130t48.5 -181.5t-48.5 -181.5t-130.5 -130t-181 -48.5zM1321 176q41 0 76.5 21t56.5 56t21 77t-21 77t-56.5 56t-76.5 21
q-42 0 -77 -21t-56.5 -56t-21.5 -77t21.5 -77t56.5 -56t77 -21zM480 750q-99 0 -181 48.5t-130.5 130t-48.5 181.5q0 98 50 180t132 131t178 49q99 0 180.5 -48.5t130.5 -130t49 -181.5t-49 -181.5t-130.5 -130t-180.5 -48.5zM480 956q42 0 77 21t56 56t21 77t-21 77t-56 56
t-77 21t-77 -21t-56 -56t-21 -77t21 -77t56 -56t77 -21z" />
    <glyph glyph-name="ampersand" unicode="&#x26;" horiz-adv-x="1337" 
d="M617 -30q-120 0 -226.5 35.5t-177.5 112.5q-57 63 -83.5 137.5t-29.5 159.5q0 83 24.5 161t75.5 138q20 24 43.5 42.5t47.5 33.5q-59 66 -89.5 128t-30.5 146q0 126 68 226t185 144q51 19 103.5 26t102.5 7q94 0 181 -28.5t148 -92.5q39 -37 65 -83.5t39 -95.5l-238 -51
q-14 45 -49 77q-30 29 -71 38.5t-81 9.5q-64 0 -113 -23t-72.5 -62t-23.5 -95q0 -50 18.5 -80t45.5 -61q18 -20 44 -44t54 -50l362 -335q1 20 1 43.5v44.5v176h212v-261q0 -54 -3 -104.5t-12 -83.5l179 -164l-155 -165l-139 132q-51 -48 -112 -78t-123 -43
q-45 -11 -86 -14.5t-84 -3.5zM627 199q31 0 58.5 3t53.5 12q37 11 63.5 26t46.5 31l-381 350q-27 -10 -48.5 -25.5t-36.5 -34.5q-19 -25 -29.5 -58.5t-10.5 -73.5q1 -46 15 -81.5t37 -63.5q36 -46 103 -65.5t129 -19.5z" />
    <glyph glyph-name="quotesingle" unicode="'" horiz-adv-x="521" 
d="M120 1080v360h241v-360h-241z" />
    <glyph glyph-name="parenleft" unicode="(" horiz-adv-x="906" 
d="M646 -381q-117 136 -200 307.5t-126 359.5t-40 374q-3 186 40 374.5t126 359.5t200 307l178 -132q-120 -145 -191.5 -293t-102.5 -301.5t-32 -314.5q1 -161 32.5 -314.5t102.5 -302t191 -291.5z" />
    <glyph glyph-name="parenright" unicode=")" horiz-adv-x="906" 
d="M260 -381l-178 133q120 143 191 291.5t102.5 302t32.5 314.5q-1 161 -32 314.5t-102.5 301.5t-191.5 293l178 132q117 -136 200 -307t126 -359.5t40 -374.5q3 -186 -40 -374t-126 -359.5t-200 -307.5z" />
    <glyph glyph-name="asterisk" unicode="*" horiz-adv-x="929" 
d="M309 727l-173 125l151 177l-227 61l66 203l217 -89l-15 236h214l-15 -236l216 89l66 -203l-226 -61l150 -177l-173 -125l-125 196z" />
    <glyph glyph-name="plus" unicode="+" horiz-adv-x="1143" 
d="M478 268v358h-358v189h358v357h189v-357h356v-189h-356v-358h-189z" />
    <glyph glyph-name="comma" unicode="," horiz-adv-x="607" 
d="M120 -255l14 104q46 -4 73 15.5t36.5 55t4.5 80.5h-128v257h247v-267q0 -131 -62 -198t-185 -47z" />
    <glyph glyph-name="hyphen" unicode="-" horiz-adv-x="840" 
d="M120 536v189h600v-189h-600z" />
    <glyph glyph-name="period" unicode="." horiz-adv-x="607" 
d="M180 0v247h247v-247h-247z" />
    <glyph glyph-name="slash" unicode="/" horiz-adv-x="866" 
d="M504 1440h242l-384 -1440h-242z" />
    <glyph glyph-name="zero" unicode="0" horiz-adv-x="1316" 
d="M658 -30q-153 0 -270 65.5t-182.5 182.5t-65.5 270v464q0 153 65.5 270t182.5 182.5t270 65.5t269.5 -65.5t182.5 -182.5t66 -270v-464q0 -153 -66 -270t-182.5 -182.5t-269.5 -65.5zM658 199q76 0 138 36.5t98 98t36 137.5v499q0 77 -36 138.5t-98 98t-138 36.5
t-138 -36.5t-98 -98t-36 -138.5v-499q0 -76 36 -137.5t98 -98t138 -36.5z" />
    <glyph glyph-name="one" unicode="1" horiz-adv-x="876" 
d="M390 0v1177l-270 -165v266l270 162h246v-1440h-246z" />
    <glyph glyph-name="two" unicode="2" horiz-adv-x="1191" 
d="M100 2v210l616 549q72 64 100 121t28 110q0 72 -31 128.5t-85.5 89.5t-125.5 33q-75 0 -132.5 -34.5t-89.5 -91.5t-30 -123h-248q0 144 64.5 251t178 166t262.5 59q138 0 248 -61.5t173 -170t63 -249.5q0 -103 -28 -173t-83.5 -129t-137.5 -131l-437 -387l-22 60h708
v-227h-991z" />
    <glyph glyph-name="three" unicode="3" horiz-adv-x="1163" 
d="M552 -27q-108 0 -204 42t-166.5 119t-101.5 182l233 63q25 -86 91.5 -132.5t146.5 -45.5q71 0 127 33t88 89.5t32 126.5q0 107 -69 179t-178 72q-33 0 -64.5 -9t-60.5 -25l-110 190l484 414l21 -58h-685v227h883v-228l-389 -374l-2 71q131 -9 223.5 -73t142 -165
t49.5 -221q0 -136 -66.5 -244t-178 -170.5t-246.5 -62.5z" />
    <glyph glyph-name="four" unicode="4" horiz-adv-x="1217" 
d="M738 0v238h-638v225l461 977h275l-461 -977h363v375h244v-375h135v-225h-135v-238h-244z" />
    <glyph glyph-name="five" unicode="5" horiz-adv-x="1172" 
d="M567 -30q-110 0 -205 45.5t-163.5 125.5t-98.5 186l232 62q14 -58 51.5 -100t88 -65t104.5 -23q70 0 128 34t92 91.5t34 127.5t-34.5 127.5t-92.5 91t-127 33.5q-83 0 -137.5 -30t-83.5 -64l-206 66l44 762h782v-226h-653l90 85l-32 -530l-44 54q56 51 130 76t143 25
q135 0 239.5 -61.5t164 -167.5t59.5 -241t-70 -244.5t-184.5 -174.5t-250.5 -65z" />
    <glyph glyph-name="six" unicode="6" horiz-adv-x="1243" 
d="M638 -30q-141 0 -253.5 66.5t-178.5 184.5t-66 271v438q0 164 65.5 285t184 187t275.5 66q109 0 207 -36.5t174 -116.5l-174 -169q-38 45 -92.5 71t-114.5 26q-84 0 -147 -39.5t-97.5 -103.5t-34.5 -137v-239l-44 48q62 72 149 112.5t182 40.5q136 0 240 -61.5t164 -168
t60 -242.5q0 -135 -68.5 -244.5t-181.5 -174t-249 -64.5zM638 201q70 0 128 33.5t92.5 91t34.5 127.5t-34 128t-91.5 92.5t-127.5 34.5t-128 -34.5t-92 -92.5t-34 -128q0 -68 33.5 -125.5t91 -92t127.5 -34.5z" />
    <glyph glyph-name="seven" unicode="7" horiz-adv-x="1067" 
d="M213 0l496 1212h-629v228h887v-228l-494 -1212h-260z" />
    <glyph glyph-name="eight" unicode="8" horiz-adv-x="1225" 
d="M611 -30q-143 0 -254 58t-174 161t-63 236q0 119 55 221t161 163l-5 -77q-83 63 -128.5 145.5t-45.5 185.5q0 124 58.5 215t160.5 141.5t235 50.5t235.5 -50.5t161 -141.5t58.5 -215q0 -103 -43.5 -185t-131.5 -148l-1 78q104 -59 159.5 -161.5t55.5 -221.5
q0 -133 -63.5 -236t-175 -161t-255.5 -58zM611 197q106 0 172.5 58t66.5 170t-66 170.5t-173 58.5q-106 0 -171 -58.5t-65 -170.5t65 -170t171 -58zM611 883q89 0 144.5 44.5t55.5 135.5t-55.5 135.5t-144.5 44.5q-88 0 -143.5 -44.5t-55.5 -135.5t55.5 -135.5t143.5 -44.5z
" />
    <glyph glyph-name="nine" unicode="9" horiz-adv-x="1243" 
d="M605 1468q141 0 254 -66.5t178.5 -184t65.5 -270.5v-439q0 -163 -65.5 -284.5t-183.5 -187.5t-276 -66q-109 0 -206 37.5t-174 115.5l173 169q39 -45 93.5 -70.5t113.5 -25.5q84 0 147 39.5t98 103t35 136.5v239l43 -48q-61 -72 -148 -112.5t-183 -40.5q-135 0 -239.5 62
t-164 168.5t-59.5 241.5t68 244.5t181.5 174t248.5 64.5zM605 1238q-70 0 -128 -34t-92 -91.5t-34 -127.5t33.5 -128t91 -92t127.5 -34t128 34t92.5 92t34.5 128q0 68 -34 125.5t-91.5 92.5t-127.5 35z" />
    <glyph glyph-name="colon" unicode=":" horiz-adv-x="685" 
d="M220 130v247h247v-247h-247zM222 703v247h247v-247h-247z" />
    <glyph glyph-name="semicolon" unicode=";" horiz-adv-x="687" 
d="M220 -255l14 104q46 -4 73 15.5t36.5 55t4.5 80.5h-128v257h247v-267q0 -131 -62 -198t-185 -47zM220 833v247h247v-247h-247z" />
    <glyph glyph-name="less" unicode="&#x3c;" horiz-adv-x="1275" 
d="M760 150l-480 480l480 480l150 -149l-342 -331l342 -331z" />
    <glyph glyph-name="equal" unicode="=" horiz-adv-x="1500" 
d="M240 814v189h1020v-189h-1020zM240 437v189h1020v-189h-1020z" />
    <glyph glyph-name="greater" unicode="&#x3e;" horiz-adv-x="1275" 
d="M514 150l-149 149l341 331l-341 331l149 149l481 -480z" />
    <glyph glyph-name="question" unicode="?" horiz-adv-x="1106" 
d="M401 391q0 69 13.5 133.5t44.5 119.5q27 53 60 84.5t74 63t91 84.5q41 45 54 89.5t13 95.5q0 33 -7 62t-25 50q-28 37 -72 52.5t-94 15.5q-41 0 -78.5 -10.5t-63.5 -32.5q-30 -24 -44 -59t-13 -77h-254q10 100 54.5 185.5t117.5 136.5q57 42 128.5 63t143.5 21
q110 0 207.5 -34t162.5 -112q45 -51 68.5 -118t23.5 -136q0 -103 -44.5 -188t-112.5 -157q-32 -34 -61 -60t-53.5 -50.5t-40.5 -51.5q-28 -47 -33 -79.5t-5 -90.5h-255zM403 0v265h253v-265h-253z" />
    <glyph glyph-name="at" unicode="@" horiz-adv-x="1827" 
d="M911 -210q-166 0 -303.5 53.5t-238 151t-155 229.5t-54.5 288q0 194 58.5 340t162 243.5t238 146t284.5 48.5q191 0 335 -58t240 -158.5t143.5 -229.5t45.5 -272q-3 -196 -77 -304t-244 -108q-81 0 -154.5 38t-101.5 111l63 -1q-43 -79 -115 -110.5t-147 -31.5
q-106 0 -187 46.5t-127.5 129.5t-46.5 193q0 113 48.5 196t131.5 128t185 45q65 0 136 -26.5t110 -71.5l-41 -54v124h148l-3 -377q0 -77 27 -112.5t76 -35.5q52 0 76 29t31.5 78t8.5 111q2 157 -49.5 259.5t-134.5 162.5t-178.5 85t-181.5 25q-135 0 -240.5 -41.5
t-177.5 -118.5t-108 -184t-32 -239q4 -128 45 -228t115 -169.5t174.5 -105.5t223.5 -36q62 0 123.5 12t114.5 34l63 -178q-72 -28 -150.5 -42.5t-159.5 -14.5zM905 357q68 0 115.5 39t47.5 139q0 88 -40 133.5t-116 45.5q-91 0 -135.5 -48.5t-44.5 -130.5q0 -83 45.5 -130.5
t127.5 -47.5z" />
    <glyph glyph-name="A" unicode="A" horiz-adv-x="1341" 
d="M40 0l454 1440h353l454 -1440h-248l-412 1292h54l-407 -1292h-248zM293 312v225h756v-225h-756z" />
    <glyph glyph-name="B" unicode="B" horiz-adv-x="1262" 
d="M140 0v1440h571q146 0 239.5 -58.5t139 -149.5t45.5 -188q0 -119 -56.5 -202t-153.5 -112v50q136 -31 206.5 -129t70.5 -223q0 -128 -49 -224t-145.5 -150t-238.5 -54h-629zM384 227h355q63 0 113 25.5t78.5 72t28.5 110.5q0 58 -25 104t-73 73.5t-115 27.5h-362v-413z
M384 865h324q52 0 93 20t65 59t24 96q0 75 -48 125t-134 50h-324v-350z" />
    <glyph glyph-name="C" unicode="C" horiz-adv-x="1477" 
d="M749 -30q-216 0 -370 94.5t-236.5 263.5t-82.5 392t82.5 392t236.5 263.5t370 94.5q249 0 415 -124.5t233 -335.5l-243 -67q-42 141 -143 220.5t-262 79.5q-145 0 -241.5 -65t-145 -182.5t-49.5 -275.5q0 -158 48.5 -275.5t145.5 -182.5t242 -65q161 0 262 80t143 220
l243 -67q-67 -211 -233 -335.5t-415 -124.5z" />
    <glyph glyph-name="D" unicode="D" horiz-adv-x="1401" 
d="M140 0v1440h459q18 0 71.5 -1t103.5 -7q171 -22 289.5 -121.5t179.5 -253.5t61 -337t-61 -337t-179.5 -253.5t-289.5 -121.5q-49 -6 -103 -7t-72 -1h-459zM385 227h214q30 0 76.5 2t82.5 9q102 19 166 91t94.5 175t30.5 216q0 117 -31 220t-95.5 173t-164.5 89
q-36 8 -82.5 9.5t-76.5 1.5h-214v-986z" />
    <glyph glyph-name="E" unicode="E" horiz-adv-x="1170" 
d="M140 0v1440h930v-226h-689v-355h569v-226h-569v-407h689v-226h-930z" />
    <glyph glyph-name="F" unicode="F" horiz-adv-x="1047" 
d="M140 0v1440h867v-241h-626v-359h506v-240h-506v-600h-241z" />
    <glyph glyph-name="G" unicode="G" horiz-adv-x="1464" 
d="M734 -30q-140 0 -262.5 49.5t-215 145.5t-144.5 235.5t-52 319.5q0 236 88 403.5t241 257t345 89.5q266 0 421.5 -123.5t210.5 -346.5l-246 -39q-41 128 -134 204.5t-237 76.5q-145 2 -241 -63t-144.5 -183t-48.5 -276t48 -274.5t144.5 -181.5t241.5 -67q109 -1 191 39.5
t134 123t70 206.5h-254v189h510q2 -16 3 -47t1 -37q0 -204 -80.5 -362.5t-230.5 -248.5t-359 -90z" />
    <glyph glyph-name="H" unicode="H" horiz-adv-x="1443" 
d="M140 0v1440h241v-606h682v606h240v-1440h-240v608h-682v-608h-241z" />
    <glyph glyph-name="I" unicode="I" horiz-adv-x="561" 
d="M160 0v1440h241v-1440h-241z" />
    <glyph glyph-name="J" unicode="J" horiz-adv-x="1001" 
d="M428 -30q-165 0 -274.5 86t-153.5 232l238 57q11 -61 64 -105t117 -44q42 0 89 22.5t70 72.5q14 32 16.5 76.5t2.5 103.5v969h244v-969q0 -67 -0.5 -117.5t-10 -95t-37.5 -91.5q-59 -102 -154 -149.5t-211 -47.5z" />
    <glyph glyph-name="K" unicode="K" horiz-adv-x="1294" 
d="M140 0v1440h241v-668l575 668h296l-619 -706l661 -734h-306l-607 672v-672h-241z" />
    <glyph glyph-name="L" unicode="L" horiz-adv-x="1067" 
d="M160 0v1440h241v-1214h636v-226h-877z" />
    <glyph glyph-name="M" unicode="M" horiz-adv-x="1710" 
d="M140 0v1440h217l498 -1020l498 1020h217v-1440h-225v923l-442 -923h-96l-441 923v-923h-226z" />
    <glyph glyph-name="N" unicode="N" horiz-adv-x="1436" 
d="M140 0v1440h244l668 -1015v1015h244v-1440h-244l-668 1015v-1015h-244z" />
    <glyph glyph-name="O" unicode="O" horiz-adv-x="1499" 
d="M749 -30q-216 0 -370 94.5t-236.5 263.5t-82.5 392t82.5 392t236.5 263.5t370 94.5t370.5 -94.5t237 -263.5t82.5 -392t-82.5 -392t-237 -263.5t-370.5 -94.5zM749 197q145 -1 241.5 64t145 183t48.5 276t-48.5 274.5t-145 181.5t-241.5 67q-145 1 -241 -64t-144.5 -183
t-48.5 -276t48 -274.5t144.5 -181.5t241.5 -67z" />
    <glyph glyph-name="P" unicode="P" horiz-adv-x="1277" 
d="M140 0v1440h595q21 0 54 -1.5t61 -6.5q125 -19 206.5 -83t121 -161.5t39.5 -216.5q0 -118 -40 -215.5t-121.5 -161.5t-205.5 -83q-28 -4 -61.5 -6t-53.5 -2h-354v-503h-241zM381 728h344q20 0 45 2t46 8q60 15 94.5 53t49 86t14.5 94t-14.5 94.5t-49 86.5t-94.5 53
q-21 6 -46 7.5t-45 1.5h-344v-486z" />
    <glyph glyph-name="Q" unicode="Q" horiz-adv-x="1499" 
d="M1267 -30l-411 409l151 151l409 -409zM749 -30q-216 0 -370 94.5t-236.5 263.5t-82.5 392t82.5 392t236.5 263.5t370 94.5t370.5 -94.5t237 -263.5t82.5 -392t-82.5 -392t-237 -263.5t-370.5 -94.5zM749 197q145 -1 241.5 64t145 183t48.5 276t-48.5 274.5t-145 181.5
t-241.5 67q-145 1 -241 -64t-144.5 -183t-48.5 -276t48 -274.5t144.5 -181.5t241.5 -67z" />
    <glyph glyph-name="R" unicode="R" horiz-adv-x="1320" 
d="M140 0v1440h595q21 0 54 -1.5t61 -6.5q125 -19 206.5 -83t121 -161.5t39.5 -216.5q0 -176 -89 -302.5t-273 -156.5l-103 -9h-371v-503h-241zM967 0l-284 586l245 54l312 -640h-273zM381 728h344q20 0 45 2t46 8q60 15 94.5 53t49 86t14.5 94t-14.5 94.5t-49 86.5
t-94.5 53q-21 6 -46 7.5t-45 1.5h-344v-486z" />
    <glyph glyph-name="S" unicode="S" horiz-adv-x="1315" 
d="M673 -30q-158 0 -284.5 55t-208 157.5t-103.5 243.5l250 38q32 -128 131.5 -198t229.5 -70q77 0 145 24t110.5 70t42.5 113q0 30 -10 55.5t-29.5 45.5t-50 36.5t-70.5 28.5l-372 110q-48 14 -103.5 37.5t-105 65t-81 106t-31.5 159.5q0 139 70.5 233.5t190 141.5
t265.5 46q148 -1 264 -50.5t194 -143.5t110 -227l-259 -45q-16 76 -61.5 129.5t-111 81.5t-139.5 30q-72 1 -133.5 -21.5t-99 -64.5t-37.5 -98q0 -53 32 -86.5t79.5 -53t96.5 -32.5l258 -72q53 -14 119 -38t127 -67t100.5 -113t39.5 -178q0 -112 -46.5 -196.5t-125.5 -140.5
t-180.5 -84t-212.5 -28z" />
    <glyph glyph-name="T" unicode="T" horiz-adv-x="1213" 
d="M486 0v1214h-466v226h1173v-226h-466v-1214h-241z" />
    <glyph glyph-name="U" unicode="U" horiz-adv-x="1440" 
d="M720 -30q-172 0 -302.5 70t-204 197t-73.5 298v903l244 2v-899q0 -81 27.5 -145t74.5 -108.5t108 -67.5t126 -23q67 0 127.5 23.5t107.5 68t74 108.5t27 144v899h244v-905q0 -171 -73.5 -298t-204 -197t-302.5 -70z" />
    <glyph glyph-name="V" unicode="V" horiz-adv-x="1281" 
d="M464 0l-454 1440h248l380 -1206l385 1206h248l-454 -1440h-353z" />
    <glyph glyph-name="W" unicode="W" horiz-adv-x="1951" 
d="M444 0l-421 1440h253l287 -1040l286 1038l253 2l287 -1040l286 1040h253l-420 -1440h-238l-295 1024l-293 -1024h-238z" />
    <glyph glyph-name="X" unicode="X" horiz-adv-x="1311" 
d="M20 0l488 728l-474 712h295l328 -507l325 507h297l-474 -712l486 -728h-295l-339 523l-340 -523h-297z" />
    <glyph glyph-name="Y" unicode="Y" horiz-adv-x="1223" 
d="M490 0v590l-490 850h281l331 -574l330 574h281l-489 -850v-590h-244z" />
    <glyph glyph-name="Z" unicode="Z" horiz-adv-x="1327" 
d="M100 0v33l710 1181h-660v226h1077v-34l-706 -1179h689v-227h-1110z" />
    <glyph glyph-name="bracketleft" unicode="[" horiz-adv-x="847" 
d="M280 -424v2218h437v-214h-223v-1790h223v-214h-437z" />
    <glyph glyph-name="backslash" unicode="\" horiz-adv-x="866" 
d="M362 1440l384 -1440h-242l-384 1440h242z" />
    <glyph glyph-name="bracketright" unicode="]" horiz-adv-x="847" 
d="M567 -424h-437v214h223v1790h-223v214h437v-2218z" />
    <glyph glyph-name="asciicircum" unicode="^" horiz-adv-x="1361" 
d="M211 990l479 481l482 -480l-149 -149l-333 341l-330 -342z" />
    <glyph glyph-name="underscore" unicode="_" horiz-adv-x="1320" 
d="M0 -244v189h1320v-189h-1320z" />
    <glyph glyph-name="grave" unicode="`" horiz-adv-x="1077" 
d="M480 1595l-154 370h183l154 -370h-183z" />
    <glyph glyph-name="a" unicode="a" horiz-adv-x="1152" 
d="M442 -30q-117 0 -198 44.5t-122.5 118.5t-41.5 163q0 78 26 140.5t80 108t140 74.5q65 21 152.5 38t190 31.5t214.5 31.5l-86 -49q1 112 -50 165t-172 53q-73 0 -141 -34t-95 -117l-220 69q40 137 152.5 220t303.5 83q144 0 253.5 -47t162.5 -154q29 -57 35 -116.5
t6 -129.5v-663h-211v234l35 -38q-73 -117 -170.5 -171.5t-243.5 -54.5zM490 162q82 0 140 29t92.5 71t46.5 79q19 46 21.5 105.5t2.5 96.5l74 -22q-109 -17 -187 -30t-134 -24.5t-99 -25.5q-42 -15 -71 -35t-44.5 -46t-15.5 -61q0 -40 20 -70.5t58.5 -48.5t95.5 -18z" />
    <glyph glyph-name="b" unicode="b" horiz-adv-x="1232" 
d="M659 -30q-158 0 -265 75t-161 204.5t-54 290.5q0 163 54 292t158.5 203.5t258.5 74.5q153 0 265.5 -74.5t174.5 -203t62 -292.5q0 -162 -61 -291t-172 -204t-260 -75zM138 0v1440h243v-682h-30v-758h-213zM622 186q94 0 155 47t90.5 127.5t29.5 179.5q0 98 -30 178.5
t-93 128t-160 47.5q-92 0 -150 -44.5t-85.5 -124t-27.5 -185.5q0 -105 27.5 -185t87 -124.5t156.5 -44.5z" />
    <glyph glyph-name="c" unicode="c" horiz-adv-x="1151" 
d="M609 -30q-167 0 -285 74.5t-180.5 203.5t-63.5 292q1 166 65.5 294.5t183.5 202t283 73.5q184 0 311.5 -92.5t166.5 -252.5l-240 -65q-28 87 -93 135.5t-148 48.5q-94 0 -155 -44.5t-90 -122.5t-29 -177q0 -154 69 -249t205 -95q96 0 151.5 44t83.5 127l246 -55
q-50 -165 -175 -253.5t-306 -88.5z" />
    <glyph glyph-name="d" unicode="d" horiz-adv-x="1234" 
d="M573 -30q-149 0 -260 75t-172 204t-61 291q0 164 61.5 292.5t174.5 203t266 74.5q154 0 258.5 -74.5t158.5 -203.5t54 -292q0 -161 -54 -290.5t-161 -204.5t-265 -75zM610 186q97 0 156.5 44.5t87 124.5t27.5 185q0 106 -27.5 185.5t-85.5 124t-150 44.5
q-97 0 -160 -47.5t-93 -128t-30 -178.5q0 -99 29.5 -179.5t90.5 -127.5t155 -47zM881 0v758h-30v682h243v-1440h-213z" />
    <glyph glyph-name="e" unicode="e" horiz-adv-x="1204" 
d="M631 -30q-164 0 -288 71t-193.5 197t-69.5 290q0 177 68 307.5t189 202.5t280 72q168 0 285.5 -78.5t174.5 -221.5t43 -337h-239v88q-1 176 -62 257t-192 81q-148 0 -220 -91.5t-72 -267.5q0 -164 72 -254t210 -90q89 0 153.5 39.5t99.5 114.5l238 -72
q-62 -146 -191.5 -227t-285.5 -81zM259 473v182h743v-182h-743z" />
    <glyph glyph-name="f" unicode="f" horiz-adv-x="756" 
d="M234 0v1097q0 41 3 90.5t17 98.5t51 89q46 51 99.5 70.5t105.5 22t91 2.5h135v-196h-125q-69 0 -102.5 -34.5t-33.5 -90.5v-1149h-241zM60 891v189h676v-189h-676z" />
    <glyph glyph-name="g" unicode="g" horiz-adv-x="1232" 
d="M594 -510q-90 0 -172.5 28t-148.5 80.5t-108 126.5l222 110q31 -59 87.5 -87.5t120.5 -28.5q75 0 134 26.5t91.5 78t30.5 128.5v307h30v821h211v-1132q0 -41 -3.5 -78.5t-11.5 -73.5q-24 -105 -92 -172.5t-168.5 -100.5t-222.5 -33zM573 -30q-149 0 -260 75t-172 204
t-61 291q0 164 61.5 292.5t174.5 203t266 74.5q154 0 258.5 -74.5t158.5 -203.5t54 -292q0 -161 -54 -290.5t-161 -204.5t-265 -75zM610 186q97 0 156.5 44.5t87 124.5t27.5 185q0 106 -27.5 185.5t-85.5 124t-150 44.5q-97 0 -160 -47.5t-93 -128t-30 -178.5
q0 -99 29.5 -179.5t90.5 -127.5t155 -47z" />
    <glyph glyph-name="h" unicode="h" 
d="M887 0v520q0 51 -7 113t-32.5 119.5t-76 94.5t-136.5 37q-46 0 -91 -15t-81.5 -51.5t-58.5 -100t-22 -162.5l-143 61q0 138 53.5 250t157.5 178.5t256 66.5q120 0 198 -40t124 -102t68 -132t28.5 -132.5t6.5 -101.5v-603h-244zM138 0v1440h215v-758h29v-682h-244z" />
    <glyph glyph-name="i" unicode="i" horiz-adv-x="561" 
d="M160 1244v221h241v-221h-241zM160 0v1080h241v-1080h-241z" />
    <glyph glyph-name="j" unicode="j" horiz-adv-x="577" 
d="M-20 -480v226h51q88 0 125 41t37 121v1172h240v-1280q0 -131 -76.5 -205.5t-212.5 -74.5h-164zM193 1244v221h240v-221h-240z" />
    <glyph glyph-name="k" unicode="k" horiz-adv-x="1076" 
d="M138 0l2 1440h244v-880l395 520h301l-419 -540l455 -540h-319l-413 520v-520h-246z" />
    <glyph glyph-name="l" unicode="l" horiz-adv-x="561" 
d="M160 0v1470h241v-1470h-241z" />
    <glyph glyph-name="m" unicode="m" horiz-adv-x="1798" 
d="M1437 0v656q0 111 -55 173.5t-149 62.5q-58 0 -104 -26.5t-73 -78t-27 -122.5l-107 63q-1 112 50.5 197.5t139.5 133.5t196 48q179 0 274.5 -107.5t95.5 -282.5v-717h-241zM138 0v1080h213v-335h30v-745h-243zM789 0v653q0 113 -55 176t-150 63q-92 0 -147.5 -63
t-55.5 -164l-108 72q0 105 52 189t140.5 132.5t198.5 48.5q121 0 202.5 -51.5t122 -140t40.5 -199.5v-716h-240z" />
    <glyph glyph-name="n" unicode="n" 
d="M887 0v520q0 51 -7 113t-32.5 119.5t-76 94.5t-136.5 37q-46 0 -91 -15t-81.5 -51.5t-58.5 -100t-22 -162.5l-143 61q0 138 53.5 250t157.5 178.5t256 66.5q120 0 198 -40t124 -102t68 -132t28.5 -132.5t6.5 -101.5v-603h-244zM138 0v1080h215v-335h29v-745h-244z" />
    <glyph glyph-name="o" unicode="o" horiz-adv-x="1236" 
d="M617 -30q-162 0 -283 73t-187.5 201.5t-66.5 295.5q0 170 68 298t189 200t280 72q163 0 284 -73t188 -201.5t67 -295.5q0 -168 -67.5 -296.5t-188.5 -201t-283 -72.5zM617 196q144 0 214 96t70 248q0 157 -71 250.5t-213 93.5q-97 0 -159.5 -43.5t-92.5 -121t-30 -179.5
q0 -157 71.5 -250.5t210.5 -93.5z" />
    <glyph glyph-name="p" unicode="p" horiz-adv-x="1232" 
d="M659 -30q-158 0 -265 75t-161 204.5t-54 290.5q0 163 54 292t158.5 203.5t258.5 74.5q153 0 265.5 -74.5t174.5 -203t62 -292.5q0 -162 -61 -291t-172 -204t-260 -75zM138 -480v1560h213v-758h30v-802h-243zM622 186q94 0 155 47t90.5 127.5t29.5 179.5q0 98 -30 178.5
t-93 128t-160 47.5q-92 0 -150 -44.5t-85.5 -124t-27.5 -185.5q0 -105 27.5 -185t87 -124.5t156.5 -44.5z" />
    <glyph glyph-name="q" unicode="q" horiz-adv-x="1234" 
d="M573 -30q-149 0 -260 75t-172 204t-61 291q0 164 61.5 292.5t174.5 203t266 74.5q154 0 258.5 -74.5t158.5 -203.5t54 -292q0 -161 -54 -290.5t-161 -204.5t-265 -75zM610 186q97 0 156.5 44.5t87 124.5t27.5 185q0 106 -27.5 185.5t-85.5 124t-150 44.5
q-97 0 -160 -47.5t-93 -128t-30 -178.5q0 -99 29.5 -179.5t90.5 -127.5t155 -47zM851 -480v802h30v758h213v-1560h-243z" />
    <glyph glyph-name="r" unicode="r" horiz-adv-x="798" 
d="M140 0v1080h213v-263l-26 34q20 54 53.5 98.5t80.5 73.5q40 27 88.5 42.5t99.5 19t99 -4.5v-225q-48 14 -110.5 9t-112.5 -35q-50 -27 -81.5 -69t-46.5 -95.5t-15 -115.5v-549h-242z" />
    <glyph glyph-name="s" unicode="s" horiz-adv-x="1083" 
d="M557 -30q-200 0 -325 90t-152 253l246 38q19 -80 84 -126t164 -46q87 0 134.5 34.5t47.5 94.5q0 37 -17.5 59.5t-76.5 43.5t-181 53q-136 36 -216 77.5t-115 98.5t-35 138q0 101 53 176t148 115.5t224 40.5q126 0 223.5 -39t157.5 -111t74 -169l-246 -44q-9 69 -62.5 109
t-142.5 45q-85 5 -137 -25.5t-52 -85.5q0 -31 21 -53t84.5 -44t189.5 -54q129 -33 206.5 -75.5t112 -101.5t34.5 -143q0 -163 -118.5 -256t-327.5 -93z" />
    <glyph glyph-name="t" unicode="t" horiz-adv-x="866" 
d="M773 0q-107 -20 -209.5 -17.5t-183.5 38t-123 112.5q-37 70 -39 143t-2 165v939h240v-925q0 -65 1.5 -114t20.5 -80q36 -60 115 -67t180 8v-202zM20 891v189h753v-189h-753z" />
    <glyph glyph-name="u" unicode="u" 
d="M545 -31q-120 0 -198 40t-124 102t-68 132t-28.5 132.5t-6.5 101.5v603h244v-520q0 -50 7 -112.5t32.5 -120t76 -94.5t136.5 -37q46 0 91 15t81.5 51.5t58.5 100.5t22 162l143 -61q0 -138 -53.5 -250t-157.5 -178.5t-256 -66.5zM898 0v335h-29v745h242v-1080h-213z" />
    <glyph glyph-name="v" unicode="v" horiz-adv-x="1106" 
d="M432 0l-392 1080h241l272 -783l271 783h242l-392 -1080h-242z" />
    <glyph glyph-name="w" unicode="w" horiz-adv-x="1605" 
d="M370 0l-330 1082l236 -2l211 -693l214 693h203l213 -693l212 693h236l-330 -1080h-188l-245 743l-244 -743h-188z" />
    <glyph glyph-name="x" unicode="x" horiz-adv-x="1108" 
d="M20 0l395 546l-387 534h284l243 -345l239 345h284l-387 -534l397 -546h-284l-249 357l-251 -357h-284z" />
    <glyph glyph-name="y" unicode="y" horiz-adv-x="1119" 
d="M282 -480l208 571l4 -168l-471 1157h251l334 -856h-64l325 856h241l-602 -1560h-226z" />
    <glyph glyph-name="z" unicode="z" horiz-adv-x="1067" 
d="M40 0v33l572 836h-514v211h889v-34l-570 -835h546v-211h-923z" />
    <glyph glyph-name="braceleft" unicode="{" horiz-adv-x="898" 
d="M680 -424q-129 0 -204.5 75t-75.5 205v601q0 22 -12 38l-89 126q-19 29 -19 64t19 64l89 126q12 20 12 38v601q0 129 75.5 204.5t204.5 75.5h136v-227h-119q-29 0 -49.5 -20.5t-20.5 -49.5v-584q0 -93 -54 -170l-43 -58l43 -58q54 -78 54 -170v-585q0 -29 20.5 -49.5
t49.5 -20.5h119v-226h-136z" />
    <glyph glyph-name="bar" unicode="|" horiz-adv-x="601" 
d="M180 0v1440h241v-1440h-241z" />
    <glyph glyph-name="braceright" unicode="}" horiz-adv-x="898" 
d="M218 -424h-136v226h119q29 0 49.5 20.5t20.5 49.5v585q0 92 54 170l43 58l-43 58q-54 77 -54 170v584q0 29 -20.5 49.5t-49.5 20.5h-119v227h136q129 0 204.5 -75.5t75.5 -204.5v-601q0 -18 12 -38l89 -126q20 -29 20 -64t-20 -64l-89 -126q-12 -16 -12 -38v-601
q0 -130 -75.5 -205t-204.5 -75z" />
    <glyph glyph-name="asciitilde" unicode="~" horiz-adv-x="1432" 
d="M950 409q-66 0 -127.5 29.5t-117 68.5t-104.5 69t-90 30q-46 0 -62.5 -46.5t2.5 -113.5h-214q-28 114 -10 205.5t81 146t172 54.5q67 0 128.5 -29.5t117.5 -69t104.5 -69t90.5 -29.5q44 0 61 46t-1 114h214q27 -113 9.5 -204.5t-80.5 -146.5t-174 -55z" />
    <glyph glyph-name="uni00A0" unicode="&#xa0;" horiz-adv-x="400" 
 />
    <glyph glyph-name="exclamdown" unicode="&#xa1;" horiz-adv-x="721" 
d="M240 1080h241v-221h-241v221zM240 720h241v-1080h-241v1080z" />
    <glyph glyph-name="cent" unicode="&#xa2;" horiz-adv-x="1151" 
d="M526 -58v183q-142 19 -241.5 96.5t-151.5 198t-53 270.5q1 150 54.5 270.5t153 197t238.5 95.5v187h189v-189q144 -24 243 -111.5t132 -224.5l-240 -65q-28 87 -93 135.5t-148 48.5q-94 0 -155 -44.5t-90 -122.5t-29 -177q0 -154 69 -249t205 -95q96 0 151.5 44t83.5 127
l246 -55q-43 -140 -139.5 -224.5t-235.5 -108.5v-187h-189z" />
    <glyph glyph-name="sterling" unicode="&#xa3;" horiz-adv-x="1142" 
d="M77 0v226h27q61 0 104.5 45t43.5 104v710q0 110 54.5 197.5t147 137.5t206.5 50q104 0 181 -46.5t132 -129t92 -189.5l-216 -71q-29 98 -73 153.5t-117 55.5t-117.5 -47.5t-44.5 -122.5l-1 -847h475v-226h-894zM77 609v227h723v-227h-723z" />
    <glyph glyph-name="currency" unicode="&#xa4;" horiz-adv-x="1341" 
d="M670 196q-108 0 -203 41t-167 113.5t-113 167.5t-41 204q0 108 41 203t113 167t167 113t203 41q109 0 204 -41t167.5 -113t113.5 -167t41 -203q0 -109 -41 -204t-113.5 -167.5t-167.5 -113.5t-204 -41zM220 110l-160 160l244 244l161 -160zM304 925l-244 244l160 161
l244 -244zM1121 110l-244 244l160 160l244 -244zM670 400q89 0 161.5 44t116 116.5t43.5 159.5q0 89 -44 161.5t-117 115.5t-160 43q-88 0 -160.5 -43t-116 -116t-43.5 -161q0 -87 43.5 -159.5t116 -116.5t160.5 -44zM1038 926l-161 160l244 244l160 -161z" />
    <glyph glyph-name="yen" unicode="&#xa5;" horiz-adv-x="1223" 
d="M202 524v189h820v-189h-820zM202 197v189h820v-189h-820zM490 0v590l-490 850h281l331 -574l330 574h281l-489 -850v-590h-244z" />
    <glyph glyph-name="brokenbar" unicode="&#xa6;" horiz-adv-x="601" 
d="M180 625v815h241v-815h-241zM180 -408v815h241v-815h-241z" />
    <glyph glyph-name="section" unicode="&#xa7;" horiz-adv-x="1083" 
d="M557 -280q-113 0 -208.5 36.5t-160 112.5t-85.5 194l246 38q13 -58 47 -96t80.5 -57t95.5 -19q42 0 79.5 14t61 42.5t23.5 72.5q0 43 -26.5 67.5t-87 43.5t-161.5 45q-120 31 -201.5 70.5t-123 94t-41.5 132.5q0 100 59 162t148.5 90t181.5 26l20 -98q-81 -25 -125 -59.5
t-44 -86.5q0 -46 35.5 -70.5t102 -42.5t157.5 -43q115 -31 194 -69.5t119 -96.5t40 -150q0 -115 -56 -193.5t-152 -119t-218 -40.5zM611 267l-7 96q38 8 74 29.5t58.5 55t22.5 77.5q0 43 -26 67.5t-86.5 43.5t-162.5 45q-119 31 -200.5 69.5t-123 96.5t-41.5 148
q0 114 59 187.5t150.5 109t189.5 35.5q101 0 192 -37t152.5 -108t75.5 -174l-246 -44q-9 54 -33.5 88t-62.5 50.5t-87 16.5q-41 0 -75.5 -12t-55 -36t-20.5 -59q0 -47 37.5 -72t104 -42.5t153.5 -41.5q115 -32 193.5 -69.5t119 -94.5t40.5 -146q0 -100 -48.5 -166.5
t-137 -96t-209.5 -16.5z" />
    <glyph glyph-name="dieresis" unicode="&#xa8;" horiz-adv-x="1113" 
d="M653 1607v220h220v-220h-220zM240 1607v220h220v-220h-220z" />
    <glyph glyph-name="copyright" unicode="&#xa9;" horiz-adv-x="1773" 
d="M886 -118q-171 0 -321 64t-263.5 177.5t-177.5 263.5t-64 321t64.5 321t177.5 263.5t263 177.5t321 64q172 0 321.5 -64t263 -177.5t178 -263t64.5 -321.5q0 -171 -64.5 -321t-178 -263.5t-263 -177.5t-321.5 -64zM902 282q-100 0 -172 31.5t-128 101.5q-52 66 -75 139.5
t-23 154.5q0 84 24.5 157.5t73.5 133.5q55 68 129 101.5t180 33.5q56 0 103.5 -11t97.5 -42q54 -33 94 -85t56 -122l-184 -50q-8 28 -24.5 53.5t-41.5 46.5q-24 20 -52.5 29t-58.5 9q-49 0 -86.5 -19.5t-65.5 -53.5q-29 -37 -39.5 -84.5t-10.5 -96.5q0 -50 11.5 -96.5
t38.5 -83.5q26 -36 64.5 -55t90.5 -19q72 0 111 35q23 21 36 42.5t23 48.5l188 -40q-18 -58 -51 -107.5t-80 -84.5q-45 -33 -99 -50t-130 -17zM886 108q125 0 233.5 46.5t191 129t129 191.5t46.5 233q0 125 -46.5 233.5t-129 191t-191 129t-233.5 46.5q-124 0 -233 -46.5
t-191.5 -129t-129 -191t-46.5 -233.5q0 -124 46.5 -233t129 -191.5t191.5 -129t233 -46.5z" />
    <glyph glyph-name="ordfeminine" unicode="&#xaa;" horiz-adv-x="640" 
d="M261 540q-88 0 -134.5 48.5t-46.5 114.5q0 58 28 99t93 64q46 16 118 27t161 24l-46 -29q1 54 -23 79.5t-82 25.5q-34 0 -67 -16t-46 -55l-117 37q20 68 77 109.5t153 41.5q71 0 126.5 -22.5t82.5 -76.5q15 -29 18.5 -59t3.5 -66v-331h-113v114l17 -22q-38 -56 -85 -81.5
t-118 -25.5zM287 642q59 0 91.5 29t40.5 51q11 23 12 53t1 48l39 -11q-86 -14 -130.5 -22t-74.5 -18q-30 -12 -45 -28t-15 -39q0 -29 21 -46t60 -17z" />
    <glyph glyph-name="guillemotleft" unicode="&#xab;" horiz-adv-x="1172" 
d="M920 97l-352 443l352 443l129 -101l-272 -342l272 -342zM512 97l-352 443l352 443l129 -101l-273 -342l273 -342z" />
    <glyph glyph-name="logicalnot" unicode="&#xac;" horiz-adv-x="1200" 
d="M891 372v234h-771v189h960v-423h-189z" />
    <glyph glyph-name="uni00AD" unicode="&#xad;" horiz-adv-x="840" 
d="M120 536v189h600v-189h-600z" />
    <glyph glyph-name="registered" unicode="&#xae;" horiz-adv-x="1310" 
d="M654 546q-106 0 -199 40t-164 111t-111 164.5t-40 200.5q0 106 40 199t111 163.5t164 111t199 40.5q107 0 200 -40.5t164.5 -111t111.5 -163.5t40 -199q0 -107 -40 -200.5t-111.5 -164.5t-164.5 -111t-200 -40zM656 706q97 0 177.5 48.5t129 129.5t48.5 178
q0 98 -48.5 178.5t-129 128.5t-177.5 48q-99 0 -179.5 -48t-128 -128.5t-47.5 -178.5q0 -97 47.5 -178t128 -129.5t179.5 -48.5zM489 826v473h201q74 0 116.5 -43t44.5 -113q0 -43 -20.5 -79.5t-62.5 -59.5l88 -178h-98l-79 162h-103v-162h-87zM576 1069h117q30 0 49.5 21
t19.5 53q0 35 -18 54t-51 19h-117v-147z" />
    <glyph glyph-name="macron" unicode="&#xaf;" horiz-adv-x="1013" 
d="M240 1680v187h533v-187h-533z" />
    <glyph glyph-name="degree" unicode="&#xb0;" horiz-adv-x="900" 
d="M420 750q-99 0 -181 48.5t-130.5 130t-48.5 181.5q0 98 50 180t132 131t178 49q99 0 180.5 -48.5t130.5 -130t49 -181.5t-49 -181.5t-130.5 -130t-180.5 -48.5zM420 956q42 0 77 21t56 56t21 77t-21 77t-56 56t-77 21t-77 -21t-56 -56t-21 -77t21 -77t56 -56t77 -21z" />
    <glyph glyph-name="plusminus" unicode="&#xb1;" horiz-adv-x="1200" 
d="M506 440v226h-386v189h386v225h189v-225h385v-189h-385v-226h-189zM120 129v189h960v-189h-960z" />
    <glyph glyph-name="uni00B2" unicode="&#xb2;" horiz-adv-x="824" 
d="M100 540v136l384 342q44 40 61.5 75t17.5 66q0 67 -40.5 111t-106.5 44q-46 0 -81 -21t-55 -56t-18 -76h-161q0 91 40 158t112 104t166 37q87 0 156 -38.5t109 -107t40 -157.5q0 -65 -18 -108.5t-53.5 -80.5t-87.5 -82l-270 -241l-16 42h445v-147h-624z" />
    <glyph glyph-name="uni00B3" unicode="&#xb3;" horiz-adv-x="808" 
d="M378 518q-102 0 -185.5 59t-112.5 159l151 41q16 -55 57 -83t90 -27q65 0 108 44t43 108q0 65 -42.5 109t-109.5 44q-20 0 -39.5 -5.5t-36.5 -14.5l-72 122l304 260l16 -42h-433v148h558v-148l-244 -234l-2 49q82 -7 140.5 -47.5t89 -103.5t30.5 -137q0 -87 -42 -155
t-113 -107t-155 -39z" />
    <glyph glyph-name="acute" unicode="&#xb4;" horiz-adv-x="1077" 
d="M597 1595h-183l154 370h183z" />
    <glyph glyph-name="uni00B5" unicode="&#xb5;" horiz-adv-x="1269" 
d="M138 -480v1560h244v-520q0 -50 7.5 -112.5t32.5 -120t75.5 -94.5t137.5 -37q45 0 90 15t81.5 51.5t58.5 100.5t22 162v555h242v-1080h-213v122q-58 -72 -147 -112.5t-206 -40.5q-65 0 -118 15.5t-94 43.5v-508h-213z" />
    <glyph glyph-name="paragraph" unicode="&#xb6;" horiz-adv-x="1430" 
d="M673 -282v785h-94q-9 0 -42.5 1t-73.5 7q-122 18 -203.5 82t-122 162t-40.5 216t39.5 215.5t121 162.5t205.5 83q40 6 73 7t43 1h335v-1722h-241zM1093 -282v1722h241v-1722h-241z" />
    <glyph glyph-name="periodcentered" unicode="&#xb7;" horiz-adv-x="533" 
d="M270 483q-63 0 -106.5 42t-43.5 105t43.5 105t106.5 42q58 0 100.5 -42t42.5 -105t-42.5 -105t-100.5 -42z" />
    <glyph glyph-name="cedilla" unicode="&#xb8;" horiz-adv-x="827" 
d="M378 -483q-40 0 -74.5 10.5t-63.5 25.5l53 143q41 -14 64 -14q30 0 46.5 17.5t16.5 36.5q0 39 -39 57t-92 33l71 205l146 1l-40 -116q58 -28 90 -74t32 -111q0 -95 -62.5 -154.5t-147.5 -59.5z" />
    <glyph glyph-name="uni00B9" unicode="&#xb9;" horiz-adv-x="688" 
d="M289 540v731l-169 -104v172l169 101h159v-900h-159z" />
    <glyph glyph-name="ordmasculine" unicode="&#xba;" horiz-adv-x="703" 
d="M351 540q-122 0 -196.5 80t-74.5 205q0 127 75.5 206t195.5 79q122 0 197 -80t75 -205q0 -126 -75 -205.5t-197 -79.5zM350 660q69 0 103 46t34 119q0 75 -34 120t-102 45q-70 0 -102.5 -45.5t-32.5 -119.5q0 -76 34 -120.5t100 -44.5z" />
    <glyph glyph-name="guillemotright" unicode="&#xbb;" horiz-adv-x="1172" 
d="M252 97l-129 101l273 342l-273 342l129 101l352 -443zM660 97l-128 101l272 342l-272 342l128 101l352 -443z" />
    <glyph glyph-name="onequarter" unicode="&#xbc;" horiz-adv-x="2071" 
d="M289 540v731l-169 -104v172l169 101h159v-900h-159zM1590 0v146h-397v147l287 607h179l-288 -607h219v231h157v-231h84v-147h-84v-146h-157zM523 0l-140 105l985 1347l141 -107z" />
    <glyph glyph-name="onehalf" unicode="&#xbd;" horiz-adv-x="2028" 
d="M289 540v731l-169 -104v172l169 101h159v-900h-159zM1304 0v136l383 342q44 40 62 75t18 66q0 67 -40.5 111t-106.5 44q-46 0 -81.5 -21t-55 -56t-18.5 -76h-160q0 91 40 158.5t112 104t166 36.5q87 0 156 -38.5t109 -107t40 -157.5q0 -65 -18 -108.5t-53.5 -80.5
t-87.5 -82l-270 -241l-16 42h445v-147h-624zM523 0l-140 105l985 1347l141 -107z" />
    <glyph glyph-name="threequarters" unicode="&#xbe;" horiz-adv-x="2056" 
d="M378 518q-102 0 -185.5 59t-112.5 159l151 41q16 -55 57 -83t90 -27q65 0 108 44t43 108q0 65 -42.5 109t-109.5 44q-20 0 -39.5 -5.5t-36.5 -14.5l-72 122l304 260l16 -42h-433v148h558v-148l-244 -234l-2 49q82 -7 140.5 -47.5t89 -103.5t30.5 -137q0 -87 -42 -155
t-113 -107t-155 -39zM1695 0v146h-397v147l287 607h179l-288 -607h219v231h157v-231h84v-147h-84v-146h-157zM644 0l-141 105l986 1347l140 -107z" />
    <glyph glyph-name="questiondown" unicode="&#xbf;" horiz-adv-x="1106" 
d="M705 689q0 -69 -13 -133.5t-45 -119.5q-26 -53 -59 -84.5t-74 -63t-92 -84.5q-39 -45 -53 -89t-14 -96q0 -33 7.5 -61.5t24.5 -50.5q28 -37 72.5 -52.5t93.5 -15.5q42 0 80 10.5t63 32.5q30 24 44 59.5t12 76.5h254q-10 -99 -54 -185t-118 -137q-57 -41 -128.5 -62.5
t-143.5 -21.5q-110 0 -207.5 34t-162.5 112q-44 51 -68 118.5t-24 135.5q0 103 44.5 188.5t112.5 156.5q32 34 61 60t53.5 50.5t41.5 51.5q28 47 32.5 80t4.5 90h255zM704 1080v-265h-254v265h254z" />
    <glyph glyph-name="Agrave" unicode="&#xc0;" horiz-adv-x="1341" 
d="M555 1595l-155 370h183l155 -370h-183zM1301 0h-248l-406 1292h53l-412 -1292h-248l454 1440h353zM1048 312h-756v225h756v-225z" />
    <glyph glyph-name="Aacute" unicode="&#xc1;" horiz-adv-x="1341" 
d="M787 1595h-183l154 370h183zM40 0l454 1440h353l454 -1440h-248l-412 1292h54l-407 -1292h-248zM293 312v225h756v-225h-756z" />
    <glyph glyph-name="Acircumflex" unicode="&#xc2;" horiz-adv-x="1341" 
d="M294 1595l273 315h202l274 -315h-225l-150 178l-149 -178h-225zM40 0l454 1440h353l454 -1440h-248l-412 1292h54l-407 -1292h-248zM293 312v225h756v-225h-756z" />
    <glyph glyph-name="Atilde" unicode="&#xc3;" horiz-adv-x="1341" 
d="M838 1650q-47 0 -90.5 21t-83.5 48.5t-74.5 48.5t-63.5 21q-32 0 -43.5 -32.5t1.5 -79.5h-152q-29 120 13.5 203.5t159.5 83.5q47 0 90.5 -21t83 -48.5t74.5 -48.5t64 -21q31 0 43.5 32.5t-1.5 80.5h152q30 -119 -13 -203.5t-160 -84.5zM40 0l454 1440h353l454 -1440
h-248l-412 1292h54l-407 -1292h-248zM293 312v225h756v-225h-756z" />
    <glyph glyph-name="Adieresis" unicode="&#xc4;" horiz-adv-x="1341" 
d="M768 1607v220h220v-220h-220zM355 1607v220h220v-220h-220zM40 0l454 1440h353l454 -1440h-248l-412 1292h54l-407 -1292h-248zM293 312v225h756v-225h-756z" />
    <glyph glyph-name="Aring" unicode="&#xc5;" horiz-adv-x="1341" 
d="M671 1552q-70 0 -128.5 34.5t-93.5 93t-35 129.5t35 129.5t93.5 93t128.5 34.5q72 0 130 -34.5t93 -93t35 -129.5t-35 -129.5t-93 -93t-130 -34.5zM672 1699q46 0 78 32.5t32 77.5q0 46 -32 78t-78 32q-45 0 -77.5 -32t-32.5 -78q0 -45 32.5 -77.5t77.5 -32.5zM40 0
l454 1440h353l454 -1440h-248l-412 1292h54l-407 -1292h-248zM293 312v225h756v-225h-756z" />
    <glyph glyph-name="AE" unicode="&#xc6;" horiz-adv-x="1877" 
d="M40 0l454 1440h434v-226h-341l107 79l-406 -1293h-248zM293 312v225h740v-225h-740zM847 0v1440h930v-226h-690v-355h570v-226h-570v-407h690v-226h-930z" />
    <glyph glyph-name="Ccedilla" unicode="&#xc7;" horiz-adv-x="1477" 
d="M728 -483q-41 0 -75 10.5t-64 25.5l53 143q41 -14 65 -14q30 0 46 17.5t16 36.5q0 39 -39 57t-92 33l71 205l146 1l-40 -116q58 -28 90 -74t32 -111q0 -95 -62.5 -154.5t-146.5 -59.5zM749 -30q-216 0 -370 94.5t-236.5 263.5t-82.5 392t82.5 392t236.5 263.5t370 94.5
q249 0 415 -124.5t233 -335.5l-243 -67q-42 141 -143 220.5t-262 79.5q-145 0 -241.5 -65t-145 -182.5t-49.5 -275.5q0 -158 48.5 -275.5t145.5 -182.5t242 -65q161 0 262 80t143 220l243 -67q-67 -211 -233 -335.5t-415 -124.5z" />
    <glyph glyph-name="Egrave" unicode="&#xc8;" horiz-adv-x="1170" 
d="M534 1595l-154 370h183l154 -370h-183zM140 0v1440h930v-226h-689v-355h569v-226h-569v-407h689v-226h-930z" />
    <glyph glyph-name="Eacute" unicode="&#xc9;" horiz-adv-x="1170" 
d="M723 1595h-182l154 370h183zM140 0v1440h930v-226h-689v-355h569v-226h-569v-407h689v-226h-930z" />
    <glyph glyph-name="Ecircumflex" unicode="&#xca;" horiz-adv-x="1170" 
d="M217 1595l274 315h202l273 -315h-225l-149 178l-150 -178h-225zM140 0v1440h930v-226h-689v-355h569v-226h-569v-407h689v-226h-930z" />
    <glyph glyph-name="Edieresis" unicode="&#xcb;" horiz-adv-x="1170" 
d="M695 1607v220h220v-220h-220zM282 1607v220h220v-220h-220zM140 0v1440h930v-226h-689v-355h569v-226h-569v-407h689v-226h-930z" />
    <glyph glyph-name="Igrave" unicode="&#xcc;" horiz-adv-x="561" 
d="M185 1595l-154 370h183l154 -370h-183zM160 0v1440h241v-1440h-241z" />
    <glyph glyph-name="Iacute" unicode="&#xcd;" horiz-adv-x="561" 
d="M375 1595h-183l155 370h183zM160 0v1440h241v-1440h-241z" />
    <glyph glyph-name="Icircumflex" unicode="&#xce;" horiz-adv-x="561" 
d="M-97 1595l273 315h202l273 -315h-225l-149 178l-149 -178h-225zM160 0v1440h241v-1440h-241z" />
    <glyph glyph-name="Idieresis" unicode="&#xcf;" horiz-adv-x="561" 
d="M377 1607v220h220v-220h-220zM-36 1607v220h220v-220h-220zM160 0v1440h241v-1440h-241z" />
    <glyph glyph-name="Eth" unicode="&#xd0;" horiz-adv-x="1404" 
d="M20 626v189h675v-189h-675zM143 0v1440h459q18 0 71.5 -1t103.5 -7q171 -22 289.5 -121.5t179.5 -253.5t61 -337t-61 -337t-179.5 -253.5t-289.5 -121.5q-49 -6 -103 -7t-72 -1h-459zM388 227h214q30 0 76.5 2t82.5 9q102 19 166 91t94.5 175t30.5 216q0 117 -31 220
t-95.5 173t-164.5 89q-36 8 -82.5 9.5t-76.5 1.5h-214v-986z" />
    <glyph glyph-name="Ntilde" unicode="&#xd1;" horiz-adv-x="1436" 
d="M907 1600q-48 0 -91 21t-83 48.5t-74.5 48.5t-63.5 21q-33 0 -44 -32.5t1 -79.5h-152q-28 120 14.5 203.5t158.5 83.5q48 0 91.5 -21t83 -48.5t74 -48.5t64.5 -21q31 0 43.5 32.5t-1.5 80.5h152q30 -119 -13 -203.5t-160 -84.5zM140 0v1440h244l668 -1015v1015h244v-1440
h-244l-668 1015v-1015h-244z" />
    <glyph glyph-name="Ograve" unicode="&#xd2;" horiz-adv-x="1499" 
d="M636 1595l-154 370h182l155 -370h-183zM749 -30q-216 0 -370 94.5t-236.5 263.5t-82.5 392t82.5 392t236.5 263.5t370 94.5t370.5 -94.5t237 -263.5t82.5 -392t-82.5 -392t-237 -263.5t-370.5 -94.5zM749 197q145 -1 241.5 64t145 183t48.5 276t-48.5 274.5t-145 181.5
t-241.5 67q-145 1 -241 -64t-144.5 -183t-48.5 -276t48 -274.5t144.5 -181.5t241.5 -67z" />
    <glyph glyph-name="Oacute" unicode="&#xd3;" horiz-adv-x="1499" 
d="M851 1595h-183l154 370h183zM749 -30q-216 0 -370 94.5t-236.5 263.5t-82.5 392t82.5 392t236.5 263.5t370 94.5t370.5 -94.5t237 -263.5t82.5 -392t-82.5 -392t-237 -263.5t-370.5 -94.5zM749 197q145 -1 241.5 64t145 183t48.5 276t-48.5 274.5t-145 181.5t-241.5 67
q-145 1 -241 -64t-144.5 -183t-48.5 -276t48 -274.5t144.5 -181.5t241.5 -67z" />
    <glyph glyph-name="Ocircumflex" unicode="&#xd4;" horiz-adv-x="1499" 
d="M372 1595l273 315h202l273 -315h-225l-149 178l-149 -178h-225zM749 -30q-216 0 -370 94.5t-236.5 263.5t-82.5 392t82.5 392t236.5 263.5t370 94.5t370.5 -94.5t237 -263.5t82.5 -392t-82.5 -392t-237 -263.5t-370.5 -94.5zM749 197q145 -1 241.5 64t145 183t48.5 276
t-48.5 274.5t-145 181.5t-241.5 67q-145 1 -241 -64t-144.5 -183t-48.5 -276t48 -274.5t144.5 -181.5t241.5 -67z" />
    <glyph glyph-name="Otilde" unicode="&#xd5;" horiz-adv-x="1499" 
d="M749 -30q-216 0 -370 94.5t-236.5 263.5t-82.5 392t82.5 392t236.5 263.5t370 94.5t370.5 -94.5t237 -263.5t82.5 -392t-82.5 -392t-237 -263.5t-370.5 -94.5zM749 197q145 -1 241.5 64t145 183t48.5 276t-48.5 274.5t-145 181.5t-241.5 67q-145 1 -241 -64t-144.5 -183
t-48.5 -276t48 -274.5t144.5 -181.5t241.5 -67zM929 1600q-47 0 -90.5 21t-83.5 48.5t-74.5 48.5t-63.5 21q-32 0 -43.5 -32.5t1.5 -79.5h-152q-29 120 13.5 203.5t159.5 83.5q47 0 90.5 -21t83 -48.5t74.5 -48.5t64 -21q31 0 43.5 32.5t-1.5 80.5h152q30 -119 -13 -203.5
t-160 -84.5z" />
    <glyph glyph-name="Odieresis" unicode="&#xd6;" horiz-adv-x="1499" 
d="M846 1607v220h220v-220h-220zM433 1607v220h220v-220h-220zM749 -30q-216 0 -370 94.5t-236.5 263.5t-82.5 392t82.5 392t236.5 263.5t370 94.5t370.5 -94.5t237 -263.5t82.5 -392t-82.5 -392t-237 -263.5t-370.5 -94.5zM749 197q145 -1 241.5 64t145 183t48.5 276
t-48.5 274.5t-145 181.5t-241.5 67q-145 1 -241 -64t-144.5 -183t-48.5 -276t48 -274.5t144.5 -181.5t241.5 -67z" />
    <glyph glyph-name="multiply" unicode="&#xd7;" horiz-adv-x="1013" 
d="M760 334l-253 254l-254 -254l-133 134l253 253l-252 252l134 133l252 -251l252 251l133 -133l-252 -252l253 -253z" />
    <glyph glyph-name="Oslash" unicode="&#xd8;" horiz-adv-x="1499" 
d="M250 -26l-170 151l165 186l32 29l800 894l13 21l188 210l170 -153l-205 -229l-24 -17l-801 -897l-16 -25zM749 -30q-216 0 -370 94.5t-236.5 263.5t-82.5 392t82.5 392t236.5 263.5t370 94.5t370.5 -94.5t237 -263.5t82.5 -392t-82.5 -392t-237 -263.5t-370.5 -94.5z
M749 197q145 -1 241.5 64t145 183t48.5 276t-48.5 274.5t-145 181.5t-241.5 67q-145 1 -241 -64t-144.5 -183t-48.5 -276t48 -274.5t144.5 -181.5t241.5 -67z" />
    <glyph glyph-name="Ugrave" unicode="&#xd9;" horiz-adv-x="1440" 
d="M647 1595l-155 370h183l154 -370h-182zM720 -30q-172 0 -302.5 70t-204 197t-73.5 298v903l244 2v-899q0 -81 27.5 -145t74.5 -108.5t108 -67.5t126 -23q67 0 127.5 23.5t107.5 68t74 108.5t27 144v899h244v-905q0 -171 -73.5 -298t-204 -197t-302.5 -70z" />
    <glyph glyph-name="Uacute" unicode="&#xda;" horiz-adv-x="1440" 
d="M806 1595h-183l154 370h183zM720 -30q-172 0 -302.5 70t-204 197t-73.5 298v903l244 2v-899q0 -81 27.5 -145t74.5 -108.5t108 -67.5t126 -23q67 0 127.5 23.5t107.5 68t74 108.5t27 144v899h244v-905q0 -171 -73.5 -298t-204 -197t-302.5 -70z" />
    <glyph glyph-name="Ucircumflex" unicode="&#xdb;" horiz-adv-x="1440" 
d="M342 1595l274 315h202l273 -315h-225l-149 178l-150 -178h-225zM720 -30q-172 0 -302.5 70t-204 197t-73.5 298v903l244 2v-899q0 -81 27.5 -145t74.5 -108.5t108 -67.5t126 -23q67 0 127.5 23.5t107.5 68t74 108.5t27 144v899h244v-905q0 -171 -73.5 -298t-204 -197
t-302.5 -70z" />
    <glyph glyph-name="Udieresis" unicode="&#xdc;" horiz-adv-x="1440" 
d="M817 1607v220h220v-220h-220zM403 1607v220h220v-220h-220zM720 -30q-172 0 -302.5 70t-204 197t-73.5 298v903l244 2v-899q0 -81 27.5 -145t74.5 -108.5t108 -67.5t126 -23q67 0 127.5 23.5t107.5 68t74 108.5t27 144v899h244v-905q0 -171 -73.5 -298t-204 -197
t-302.5 -70z" />
    <glyph glyph-name="Yacute" unicode="&#xdd;" horiz-adv-x="1223" 
d="M697 1595h-183l155 370h183zM490 0v590l-490 850h281l331 -574l330 574h281l-489 -850v-590h-244z" />
    <glyph glyph-name="Thorn" unicode="&#xde;" horiz-adv-x="1260" 
d="M140 0v1440h244v-251h343q74 0 147 -24q66 -21 124.5 -61t99.5 -97q48 -60 74.5 -135t27.5 -152q2 -76 -25 -150t-74 -133q-62 -84 -161 -134t-213 -50h-343v-253h-244zM384 479h341q46 0 96 24.5t84 69.5q24 32 38 69.5t12 77.5q-1 44 -16 86.5t-45 73.5q-31 35 -77 58
t-92 23h-341v-482z" />
    <glyph glyph-name="germandbls" unicode="&#xdf;" horiz-adv-x="1268" 
d="M689 -30q-63 0 -106 7t-80 23v236q30 -11 67.5 -20.5t84.5 -9.5q114 0 183 55t69 166q0 119 -89.5 174.5t-232.5 56.5v211q63 4 108.5 27.5t70 64.5t24.5 99q0 88 -61 136t-143 48q-56 0 -103 -22t-74 -77q-13 -26 -19 -66t-6 -84v-995h-244v1061q0 41 4.5 74t14.5 64
q30 96 94 155.5t150 87.5t182 28q126 0 227.5 -52t161 -143.5t59.5 -209.5q0 -83 -29.5 -153t-91.5 -116q52 -19 95 -53.5t75 -83t50 -108t18 -127.5q0 -211 -118 -332.5t-341 -121.5z" />
    <glyph glyph-name="agrave" unicode="&#xe0;" horiz-adv-x="1152" 
d="M498 1235l-155 370h183l155 -370h-183zM442 -30q-117 0 -198 44.5t-122.5 118.5t-41.5 163q0 78 26 140.5t80 108t140 74.5q65 21 152.5 38t190 31.5t214.5 31.5l-86 -49q1 112 -50 165t-172 53q-73 0 -141 -34t-95 -117l-220 69q40 137 152.5 220t303.5 83
q144 0 253.5 -47t162.5 -154q29 -57 35 -116.5t6 -129.5v-663h-211v234l35 -38q-73 -117 -170.5 -171.5t-243.5 -54.5zM490 162q82 0 140 29t92.5 71t46.5 79q19 46 21.5 105.5t2.5 96.5l74 -22q-109 -17 -187 -30t-134 -24.5t-99 -25.5q-42 -15 -71 -35t-44.5 -46
t-15.5 -61q0 -40 20 -70.5t58.5 -48.5t95.5 -18z" />
    <glyph glyph-name="aacute" unicode="&#xe1;" horiz-adv-x="1152" 
d="M686 1235h-183l155 370h183zM442 -30q-117 0 -198 44.5t-122.5 118.5t-41.5 163q0 78 26 140.5t80 108t140 74.5q65 21 152.5 38t190 31.5t214.5 31.5l-86 -49q1 112 -50 165t-172 53q-73 0 -141 -34t-95 -117l-220 69q40 137 152.5 220t303.5 83q144 0 253.5 -47
t162.5 -154q29 -57 35 -116.5t6 -129.5v-663h-211v234l35 -38q-73 -117 -170.5 -171.5t-243.5 -54.5zM490 162q82 0 140 29t92.5 71t46.5 79q19 46 21.5 105.5t2.5 96.5l74 -22q-109 -17 -187 -30t-134 -24.5t-99 -25.5q-42 -15 -71 -35t-44.5 -46t-15.5 -61q0 -40 20 -70.5
t58.5 -48.5t95.5 -18z" />
    <glyph glyph-name="acircumflex" unicode="&#xe2;" horiz-adv-x="1152" 
d="M215 1235l274 315h202l273 -315h-225l-149 178l-150 -178h-225zM442 -30q-117 0 -198 44.5t-122.5 118.5t-41.5 163q0 78 26 140.5t80 108t140 74.5q65 21 152.5 38t190 31.5t214.5 31.5l-86 -49q1 112 -50 165t-172 53q-73 0 -141 -34t-95 -117l-220 69
q40 137 152.5 220t303.5 83q144 0 253.5 -47t162.5 -154q29 -57 35 -116.5t6 -129.5v-663h-211v234l35 -38q-73 -117 -170.5 -171.5t-243.5 -54.5zM490 162q82 0 140 29t92.5 71t46.5 79q19 46 21.5 105.5t2.5 96.5l74 -22q-109 -17 -187 -30t-134 -24.5t-99 -25.5
q-42 -15 -71 -35t-44.5 -46t-15.5 -61q0 -40 20 -70.5t58.5 -48.5t95.5 -18z" />
    <glyph glyph-name="atilde" unicode="&#xe3;" horiz-adv-x="1152" 
d="M775 1240q-47 0 -90.5 21t-83 48.5t-74.5 48.5t-64 21q-32 0 -43.5 -32.5t1.5 -79.5h-152q-29 120 14 203.5t159 83.5q47 0 90.5 -21t83.5 -48.5t74.5 -48.5t63.5 -21q32 0 44 32.5t-1 80.5h152q29 -119 -14 -203.5t-160 -84.5zM442 -30q-117 0 -198 44.5t-122.5 118.5
t-41.5 163q0 78 26 140.5t80 108t140 74.5q65 21 152.5 38t190 31.5t214.5 31.5l-86 -49q1 112 -50 165t-172 53q-73 0 -141 -34t-95 -117l-220 69q40 137 152.5 220t303.5 83q144 0 253.5 -47t162.5 -154q29 -57 35 -116.5t6 -129.5v-663h-211v234l35 -38
q-73 -117 -170.5 -171.5t-243.5 -54.5zM490 162q82 0 140 29t92.5 71t46.5 79q19 46 21.5 105.5t2.5 96.5l74 -22q-109 -17 -187 -30t-134 -24.5t-99 -25.5q-42 -15 -71 -35t-44.5 -46t-15.5 -61q0 -40 20 -70.5t58.5 -48.5t95.5 -18z" />
    <glyph glyph-name="adieresis" unicode="&#xe4;" horiz-adv-x="1152" 
d="M691 1247v220h220v-220h-220zM278 1247v220h220v-220h-220zM442 -30q-117 0 -198 44.5t-122.5 118.5t-41.5 163q0 78 26 140.5t80 108t140 74.5q65 21 152.5 38t190 31.5t214.5 31.5l-86 -49q1 112 -50 165t-172 53q-73 0 -141 -34t-95 -117l-220 69q40 137 152.5 220
t303.5 83q144 0 253.5 -47t162.5 -154q29 -57 35 -116.5t6 -129.5v-663h-211v234l35 -38q-73 -117 -170.5 -171.5t-243.5 -54.5zM490 162q82 0 140 29t92.5 71t46.5 79q19 46 21.5 105.5t2.5 96.5l74 -22q-109 -17 -187 -30t-134 -24.5t-99 -25.5q-42 -15 -71 -35t-44.5 -46
t-15.5 -61q0 -40 20 -70.5t58.5 -48.5t95.5 -18z" />
    <glyph glyph-name="aring" unicode="&#xe5;" horiz-adv-x="1152" 
d="M589 1192q-70 0 -128.5 34.5t-93.5 93t-35 129.5t35 129.5t93.5 93t128.5 34.5q72 0 130 -34.5t93 -93t35 -129.5t-35 -129.5t-93 -93t-130 -34.5zM589 1339q47 0 78.5 32.5t31.5 77.5q0 46 -31.5 78t-78.5 32q-45 0 -77.5 -32t-32.5 -78q0 -45 32.5 -77.5t77.5 -32.5z
M442 -30q-117 0 -198 44.5t-122.5 118.5t-41.5 163q0 78 26 140.5t80 108t140 74.5q65 21 152.5 38t190 31.5t214.5 31.5l-86 -49q1 112 -50 165t-172 53q-73 0 -141 -34t-95 -117l-220 69q40 137 152.5 220t303.5 83q144 0 253.5 -47t162.5 -154q29 -57 35 -116.5t6 -129.5
v-663h-211v234l35 -38q-73 -117 -170.5 -171.5t-243.5 -54.5zM490 162q82 0 140 29t92.5 71t46.5 79q19 46 21.5 105.5t2.5 96.5l74 -22q-109 -17 -187 -30t-134 -24.5t-99 -25.5q-42 -15 -71 -35t-44.5 -46t-15.5 -61q0 -40 20 -70.5t58.5 -48.5t95.5 -18z" />
    <glyph glyph-name="ae" unicode="&#xe6;" horiz-adv-x="1872" 
d="M1326 -30q-159 0 -276 72.5t-181 198.5t-64 288q0 174 63 305t177 203.5t269 72.5q165 0 274.5 -81.5t160.5 -225.5t40 -330h-227v88q-1 159 -52 248.5t-197 89.5q-98 0 -157 -46.5t-84.5 -127.5t-25.5 -185q0 -157 67 -250.5t200 -93.5q80 0 142 38.5t96 115.5l225 -72
q-38 -97 -107.5 -166t-158 -105.5t-184.5 -36.5zM490 161q91 0 163 43.5t102 100.5q18 32 27.5 71t12 80t0.5 81l82 -35l-248 -24q-40 -3 -93.5 -11.5t-103.5 -27.5t-83 -52.5t-33 -88.5q0 -61 46 -99t128 -38zM455 -30q-180 0 -277.5 90t-97.5 230q0 87 34.5 147t90.5 97.5
t123.5 59t134 32t119.5 16.5l263 26l-53 -45q10 97 -16.5 155.5t-79 84.5t-120.5 26q-79 0 -144.5 -35t-94.5 -113l-218 66q33 85 97.5 153.5t156.5 109t209 40.5q174 0 281.5 -72t145.5 -199q17 -55 20 -106.5t3 -83.5l-119 -422q-51 -93 -120 -149.5t-154 -82t-184 -25.5z
M973 473v189h703v-189h-703z" />
    <glyph glyph-name="ccedilla" unicode="&#xe7;" horiz-adv-x="1151" 
d="M574 -483q-40 0 -74.5 10.5t-63.5 25.5l53 143q41 -14 64 -14q30 0 46.5 17.5t16.5 36.5q0 39 -39.5 57t-91.5 33l71 205l146 1l-40 -116q58 -28 90 -74t32 -111q0 -95 -62.5 -154.5t-147.5 -59.5zM609 -30q-167 0 -285 74.5t-180.5 203.5t-63.5 292q1 166 65.5 294.5
t183.5 202t283 73.5q184 0 311.5 -92.5t166.5 -252.5l-240 -65q-28 87 -93 135.5t-148 48.5q-94 0 -155 -44.5t-90 -122.5t-29 -177q0 -154 69 -249t205 -95q96 0 151.5 44t83.5 127l246 -55q-50 -165 -175 -253.5t-306 -88.5z" />
    <glyph glyph-name="egrave" unicode="&#xe8;" horiz-adv-x="1204" 
d="M528 1235l-154 370h182l155 -370h-183zM631 -30q-164 0 -288 71t-193.5 197t-69.5 290q0 177 68 307.5t189 202.5t280 72q168 0 285.5 -78.5t174.5 -221.5t43 -337h-239v88q-1 176 -62 257t-192 81q-148 0 -220 -91.5t-72 -267.5q0 -164 72 -254t210 -90q89 0 153.5 39.5
t99.5 114.5l238 -72q-62 -146 -191.5 -227t-285.5 -81zM259 473v182h743v-182h-743z" />
    <glyph glyph-name="eacute" unicode="&#xe9;" horiz-adv-x="1204" 
d="M731 1235h-183l154 370h183zM631 -30q-164 0 -288 71t-193.5 197t-69.5 290q0 177 68 307.5t189 202.5t280 72q168 0 285.5 -78.5t174.5 -221.5t43 -337h-239v88q-1 176 -62 257t-192 81q-148 0 -220 -91.5t-72 -267.5q0 -164 72 -254t210 -90q89 0 153.5 39.5
t99.5 114.5l238 -72q-62 -146 -191.5 -227t-285.5 -81zM259 473v182h743v-182h-743z" />
    <glyph glyph-name="ecircumflex" unicode="&#xea;" horiz-adv-x="1204" 
d="M240 1235l273 315h202l273 -315h-225l-149 178l-149 -178h-225zM631 -30q-164 0 -288 71t-193.5 197t-69.5 290q0 177 68 307.5t189 202.5t280 72q168 0 285.5 -78.5t174.5 -221.5t43 -337h-239v88q-1 176 -62 257t-192 81q-148 0 -220 -91.5t-72 -267.5q0 -164 72 -254
t210 -90q89 0 153.5 39.5t99.5 114.5l238 -72q-62 -146 -191.5 -227t-285.5 -81zM259 473v182h743v-182h-743z" />
    <glyph glyph-name="edieresis" unicode="&#xeb;" horiz-adv-x="1204" 
d="M714 1247v220h220v-220h-220zM301 1247v220h220v-220h-220zM631 -30q-164 0 -288 71t-193.5 197t-69.5 290q0 177 68 307.5t189 202.5t280 72q168 0 285.5 -78.5t174.5 -221.5t43 -337h-239v88q-1 176 -62 257t-192 81q-148 0 -220 -91.5t-72 -267.5q0 -164 72 -254
t210 -90q89 0 153.5 39.5t99.5 114.5l238 -72q-62 -146 -191.5 -227t-285.5 -81zM259 473v182h743v-182h-743z" />
    <glyph glyph-name="igrave" unicode="&#xec;" horiz-adv-x="561" 
d="M185 1235l-154 370h183l154 -370h-183zM160 0v1080h241v-1080h-241z" />
    <glyph glyph-name="iacute" unicode="&#xed;" horiz-adv-x="561" 
d="M375 1235h-183l155 370h183zM160 0v1080h241v-1080h-241z" />
    <glyph glyph-name="icircumflex" unicode="&#xee;" horiz-adv-x="561" 
d="M-81 1235l274 315h202l273 -315h-225l-149 178l-150 -178h-225zM160 0v1080h241v-1080h-241z" />
    <glyph glyph-name="idieresis" unicode="&#xef;" horiz-adv-x="561" 
d="M377 1247v220h220v-220h-220zM-36 1247v220h220v-220h-220zM160 0v1080h241v-1080h-241z" />
    <glyph glyph-name="eth" unicode="&#xf0;" horiz-adv-x="1193" 
d="M597 -30q-154 0 -270 67t-181.5 187t-65.5 278q0 159 65.5 279.5t181.5 188t270 66.5q75 1 142.5 -20t143.5 -69q-13 97 -81 180t-170.5 136.5t-219.5 62.5l36 185q157 -5 279 -64.5t202 -169.5q67 -86 107 -191.5t58.5 -246t18.5 -330.5q0 -164 -63 -285.5t-179 -187.5
t-274 -66zM597 184q131 0 202.5 85t71.5 235t-72 234.5t-202 83.5q-133 1 -204 -82.5t-71 -235.5q0 -153 71.5 -236.5t203.5 -83.5zM634 1075l-134 118l321 373l135 -119z" />
    <glyph glyph-name="ntilde" unicode="&#xf1;" 
d="M794 1240q-48 0 -91 21t-83 48.5t-74.5 48.5t-63.5 21q-33 0 -44 -32.5t1 -79.5h-152q-28 120 14.5 203.5t158.5 83.5q48 0 91.5 -21t83 -48.5t74 -48.5t64.5 -21q31 0 43.5 32.5t-1.5 80.5h152q30 -119 -13 -203.5t-160 -84.5zM887 0v520q0 51 -7 113t-32.5 119.5
t-76 94.5t-136.5 37q-46 0 -91 -15t-81.5 -51.5t-58.5 -100t-22 -162.5l-143 61q0 138 53.5 250t157.5 178.5t256 66.5q120 0 198 -40t124 -102t68 -132t28.5 -132.5t6.5 -101.5v-603h-244zM138 0v1080h215v-335h29v-745h-244z" />
    <glyph glyph-name="ograve" unicode="&#xf2;" horiz-adv-x="1236" 
d="M515 1235l-155 370h183l155 -370h-183zM617 -30q-162 0 -283 73t-187.5 201.5t-66.5 295.5q0 170 68 298t189 200t280 72q163 0 284 -73t188 -201.5t67 -295.5q0 -168 -67.5 -296.5t-188.5 -201t-283 -72.5zM617 196q144 0 214 96t70 248q0 157 -71 250.5t-213 93.5
q-97 0 -159.5 -43.5t-92.5 -121t-30 -179.5q0 -157 71.5 -250.5t210.5 -93.5z" />
    <glyph glyph-name="oacute" unicode="&#xf3;" horiz-adv-x="1236" 
d="M712 1235h-183l154 370h183zM617 -30q-162 0 -283 73t-187.5 201.5t-66.5 295.5q0 170 68 298t189 200t280 72q163 0 284 -73t188 -201.5t67 -295.5q0 -168 -67.5 -296.5t-188.5 -201t-283 -72.5zM617 196q144 0 214 96t70 248q0 157 -71 250.5t-213 93.5
q-97 0 -159.5 -43.5t-92.5 -121t-30 -179.5q0 -157 71.5 -250.5t210.5 -93.5z" />
    <glyph glyph-name="ocircumflex" unicode="&#xf4;" horiz-adv-x="1236" 
d="M241 1235l274 315h202l273 -315h-225l-149 178l-150 -178h-225zM617 -30q-162 0 -283 73t-187.5 201.5t-66.5 295.5q0 170 68 298t189 200t280 72q163 0 284 -73t188 -201.5t67 -295.5q0 -168 -67.5 -296.5t-188.5 -201t-283 -72.5zM617 196q144 0 214 96t70 248
q0 157 -71 250.5t-213 93.5q-97 0 -159.5 -43.5t-92.5 -121t-30 -179.5q0 -157 71.5 -250.5t210.5 -93.5z" />
    <glyph glyph-name="otilde" unicode="&#xf5;" horiz-adv-x="1236" 
d="M786 1240q-48 0 -91 21t-83 48.5t-74.5 48.5t-63.5 21q-33 0 -44 -32.5t1 -79.5h-152q-28 120 14.5 203.5t158.5 83.5q48 0 91.5 -21t83 -48.5t74 -48.5t64.5 -21q31 0 43.5 32.5t-1.5 80.5h152q30 -119 -13 -203.5t-160 -84.5zM617 -30q-162 0 -283 73t-187.5 201.5
t-66.5 295.5q0 170 68 298t189 200t280 72q163 0 284 -73t188 -201.5t67 -295.5q0 -168 -67.5 -296.5t-188.5 -201t-283 -72.5zM617 196q144 0 214 96t70 248q0 157 -71 250.5t-213 93.5q-97 0 -159.5 -43.5t-92.5 -121t-30 -179.5q0 -157 71.5 -250.5t210.5 -93.5z" />
    <glyph glyph-name="odieresis" unicode="&#xf6;" horiz-adv-x="1236" 
d="M716 1247v220h220v-220h-220zM302 1247v220h220v-220h-220zM617 -30q-162 0 -283 73t-187.5 201.5t-66.5 295.5q0 170 68 298t189 200t280 72q163 0 284 -73t188 -201t67 -296t-67.5 -296.5t-188.5 -201t-283 -72.5zM618 196q143 0 213 96t70 248q0 157 -71 250.5
t-213 93.5q-97 0 -159.5 -43.5t-92.5 -121t-30 -178.5q0 -158 71.5 -251.5t211.5 -93.5z" />
    <glyph glyph-name="divide" unicode="&#xf7;" horiz-adv-x="1080" 
d="M120 626v189h840v-189h-840zM500 902v247h247v-247h-247zM500 418v247h247v-247h-247z" />
    <glyph glyph-name="oslash" unicode="&#xf8;" horiz-adv-x="1236" 
d="M212 -25l-160 160l179 179l72 37l539 537l21 56l161 161l160 -161l-171 -170l-59 -25l-529 -529l-45 -77zM617 -30q-162 0 -283 73t-187.5 201.5t-66.5 295.5q0 170 68 298t189 200t280 72q163 0 284 -73t188 -201.5t67 -295.5q0 -168 -67.5 -296.5t-188.5 -201
t-283 -72.5zM617 196q144 0 214 96t70 248q0 157 -71 250.5t-213 93.5q-97 0 -159.5 -43.5t-92.5 -121t-30 -179.5q0 -157 71.5 -250.5t210.5 -93.5z" />
    <glyph glyph-name="ugrave" unicode="&#xf9;" 
d="M526 1235l-154 370h183l154 -370h-183zM545 -31q-120 0 -198 40t-124 102t-68 132t-28.5 132.5t-6.5 101.5v603h244v-520q0 -50 7 -112.5t32.5 -120t76 -94.5t136.5 -37q46 0 91 15t81.5 51.5t58.5 100.5t22 162l143 -61q0 -138 -53.5 -250t-157.5 -178.5t-256 -66.5z
M898 0v335h-29v745h242v-1080h-213z" />
    <glyph glyph-name="uacute" unicode="&#xfa;" 
d="M696 1235h-182l154 370h183zM545 -31q-120 0 -198 40t-124 102t-68 132t-28.5 132.5t-6.5 101.5v603h244v-520q0 -50 7 -112.5t32.5 -120t76 -94.5t136.5 -37q46 0 91 15t81.5 51.5t58.5 100.5t22 162l143 -61q0 -138 -53.5 -250t-157.5 -178.5t-256 -66.5zM898 0v335
h-29v745h242v-1080h-213z" />
    <glyph glyph-name="ucircumflex" unicode="&#xfb;" 
d="M238 1235l273 315h202l273 -315h-225l-149 178l-149 -178h-225zM545 -31q-120 0 -198 40t-124 102t-68 132t-28.5 132.5t-6.5 101.5v603h244v-520q0 -50 7 -112.5t32.5 -120t76 -94.5t136.5 -37q46 0 91 15t81.5 51.5t58.5 100.5t22 162l143 -61q0 -138 -53.5 -250
t-157.5 -178.5t-256 -66.5zM898 0v335h-29v745h242v-1080h-213z" />
    <glyph glyph-name="udieresis" unicode="&#xfc;" 
d="M712 1247v220h220v-220h-220zM299 1247v220h220v-220h-220zM545 -31q-120 0 -198 40t-124 102t-68 132t-28.5 132.5t-6.5 101.5v603h244v-520q0 -50 7 -112.5t32.5 -120t76 -94.5t136.5 -37q46 0 91 15t81.5 51.5t58.5 100.5t22 162l143 -61q0 -138 -53.5 -250
t-157.5 -178.5t-256 -66.5zM898 0v335h-29v745h242v-1080h-213z" />
    <glyph glyph-name="yacute" unicode="&#xfd;" horiz-adv-x="1119" 
d="M663 1235h-183l155 370h183zM282 -480l208 571l4 -168l-471 1157h251l334 -856h-64l325 856h241l-602 -1560h-226z" />
    <glyph glyph-name="thorn" unicode="&#xfe;" horiz-adv-x="1232" 
d="M140 850v590h242v-590h-242zM659 -30q-158 0 -265 75t-161 204.5t-54 290.5q0 163 54 292t158.5 203.5t258.5 74.5q153 0 265.5 -74.5t174.5 -203t62 -292.5q0 -162 -61 -291t-172 -204t-260 -75zM138 -480v1560h213v-758h30v-802h-243zM622 186q94 0 155 47t90.5 127.5
t29.5 179.5q0 98 -30 178.5t-93 128t-160 47.5q-92 0 -150 -44.5t-85.5 -124t-27.5 -185.5q0 -105 27.5 -185t87 -124.5t156.5 -44.5z" />
    <glyph glyph-name="ydieresis" unicode="&#xff;" horiz-adv-x="1119" 
d="M669 1247v220h220v-220h-220zM256 1247v220h220v-220h-220zM282 -480l208 571l4 -168l-471 1157h251l334 -856h-64l325 856h241l-602 -1560h-226z" />
    <glyph glyph-name="Amacron" unicode="&#x100;" horiz-adv-x="1341" 
d="M405 1680v187h533v-187h-533zM40 0l454 1440h353l454 -1440h-248l-412 1292h54l-407 -1292h-248zM293 312v225h756v-225h-756z" />
    <glyph glyph-name="amacron" unicode="&#x101;" horiz-adv-x="1152" 
d="M350 1320v187h533v-187h-533zM442 -30q-117 0 -198 44.5t-122.5 118.5t-41.5 163q0 78 26 140.5t80 108t140 74.5q65 21 152.5 38t190 31.5t214.5 31.5l-86 -49q1 112 -50 165t-172 53q-73 0 -141 -34t-95 -117l-220 69q40 137 152.5 220t303.5 83q144 0 253.5 -47
t162.5 -154q29 -57 35 -116.5t6 -129.5v-663h-211v234l35 -38q-73 -117 -170.5 -171.5t-243.5 -54.5zM490 162q82 0 140 29t92.5 71t46.5 79q19 46 21.5 105.5t2.5 96.5l74 -22q-109 -17 -187 -30t-134 -24.5t-99 -25.5q-42 -15 -71 -35t-44.5 -46t-15.5 -61q0 -40 20 -70.5
t58.5 -48.5t95.5 -18z" />
    <glyph glyph-name="Abreve" unicode="&#x102;" horiz-adv-x="1341" 
d="M672 1562q-84 0 -153 41t-109.5 109.5t-40.5 152.5h188q0 -48 33.5 -81.5t81.5 -33.5t81.5 33.5t33.5 81.5h188q0 -84 -41 -152.5t-110 -109.5t-152 -41zM40 0l454 1440h353l454 -1440h-248l-412 1292h54l-407 -1292h-248zM293 312v225h756v-225h-756z" />
    <glyph glyph-name="abreve" unicode="&#x103;" horiz-adv-x="1152" 
d="M587 1202q-84 0 -152.5 41t-109.5 109.5t-41 152.5h188q0 -48 33.5 -81.5t81.5 -33.5t81.5 33.5t33.5 81.5h188q0 -84 -41 -152.5t-110 -109.5t-152 -41zM442 -30q-117 0 -198 44.5t-122.5 118.5t-41.5 163q0 78 26 140.5t80 108t140 74.5q65 21 152.5 38t190 31.5
t214.5 31.5l-86 -49q1 112 -50 165t-172 53q-73 0 -141 -34t-95 -117l-220 69q40 137 152.5 220t303.5 83q144 0 253.5 -47t162.5 -154q29 -57 35 -116.5t6 -129.5v-663h-211v234l35 -38q-73 -117 -170.5 -171.5t-243.5 -54.5zM490 162q82 0 140 29t92.5 71t46.5 79
q19 46 21.5 105.5t2.5 96.5l74 -22q-109 -17 -187 -30t-134 -24.5t-99 -25.5q-42 -15 -71 -35t-44.5 -46t-15.5 -61q0 -40 20 -70.5t58.5 -48.5t95.5 -18z" />
    <glyph glyph-name="Aogonek" unicode="&#x104;" horiz-adv-x="1341" 
d="M1106 -479q-63 0 -111.5 31t-75.5 80.5t-27 106.5q0 72 40 144.5t109 134.5t155 103l105 -121q-61 -33 -111.5 -76.5t-80 -87.5t-29.5 -78q0 -25 17 -42t41 -17q17 0 36 9t38 26l86 -113q-35 -48 -86.5 -74t-105.5 -26zM40 0l454 1440h353l454 -1440h-248l-412 1292h54
l-407 -1292h-248zM293 312v225h756v-225h-756z" />
    <glyph glyph-name="aogonek" unicode="&#x105;" horiz-adv-x="1152" 
d="M837 -479q-63 0 -111 31t-75.5 80.5t-27.5 106.5q0 72 40.5 144.5t109 134.5t154.5 103l105 -121q-61 -33 -111.5 -76.5t-80 -87.5t-29.5 -78q0 -25 17 -42t41 -17q17 0 36 9t38 26l86 -113q-35 -48 -86.5 -74t-105.5 -26zM442 -30q-117 0 -198 44.5t-122.5 118.5
t-41.5 163q0 78 26 140.5t80 108t140 74.5q65 21 152.5 38t190 31.5t214.5 31.5l-86 -49q1 112 -50 165t-172 53q-73 0 -141 -34t-95 -117l-220 69q40 137 152.5 220t303.5 83q144 0 253.5 -47t162.5 -154q29 -57 35 -116.5t6 -129.5v-663h-211v234l35 -38
q-73 -117 -170.5 -171.5t-243.5 -54.5zM490 162q82 0 140 29t92.5 71t46.5 79q19 46 21.5 105.5t2.5 96.5l74 -22q-109 -17 -187 -30t-134 -24.5t-99 -25.5q-42 -15 -71 -35t-44.5 -46t-15.5 -61q0 -40 20 -70.5t58.5 -48.5t95.5 -18z" />
    <glyph glyph-name="Cacute" unicode="&#x106;" horiz-adv-x="1477" 
d="M864 1595h-183l154 370h183zM749 -30q-216 0 -370 94.5t-236.5 263.5t-82.5 392t82.5 392t236.5 263.5t370 94.5q249 0 415 -124.5t233 -335.5l-243 -67q-42 141 -143 220.5t-262 79.5q-145 0 -241.5 -65t-145 -182.5t-49.5 -275.5q0 -158 48.5 -275.5t145.5 -182.5
t242 -65q161 0 262 80t143 220l243 -67q-67 -211 -233 -335.5t-415 -124.5z" />
    <glyph glyph-name="cacute" unicode="&#x107;" horiz-adv-x="1151" 
d="M705 1235h-183l154 370h183zM609 -30q-167 0 -285 74.5t-180.5 203.5t-63.5 292q1 166 65.5 294.5t183.5 202t283 73.5q184 0 311.5 -92.5t166.5 -252.5l-240 -65q-28 87 -93 135.5t-148 48.5q-94 0 -155 -44.5t-90 -122.5t-29 -177q0 -154 69 -249t205 -95
q96 0 151.5 44t83.5 127l246 -55q-50 -165 -175 -253.5t-306 -88.5z" />
    <glyph glyph-name="Ccircumflex" unicode="&#x108;" horiz-adv-x="1477" 
d="M372 1595l273 315h202l273 -315h-225l-149 178l-149 -178h-225zM749 -30q-216 0 -370 94.5t-236.5 263.5t-82.5 392t82.5 392t236.5 263.5t370 94.5q249 0 415 -124.5t233 -335.5l-243 -67q-42 141 -143 220.5t-262 79.5q-145 0 -241.5 -65t-145 -182.5t-49.5 -275.5
q0 -158 48.5 -275.5t145.5 -182.5t242 -65q161 0 262 80t143 220l243 -67q-67 -211 -233 -335.5t-415 -124.5z" />
    <glyph glyph-name="ccircumflex" unicode="&#x109;" horiz-adv-x="1151" 
d="M241 1235l274 315h202l273 -315h-225l-149 178l-150 -178h-225zM609 -30q-167 0 -285 74.5t-180.5 203.5t-63.5 292q1 166 65.5 294.5t183.5 202t283 73.5q184 0 311.5 -92.5t166.5 -252.5l-240 -65q-28 87 -93 135.5t-148 48.5q-94 0 -155 -44.5t-90 -122.5t-29 -177
q0 -154 69 -249t205 -95q96 0 151.5 44t83.5 127l246 -55q-50 -165 -175 -253.5t-306 -88.5z" />
    <glyph glyph-name="Cdotaccent" unicode="&#x10a;" horiz-adv-x="1477" 
d="M636 1653v247h247v-247h-247zM749 -30q-216 0 -370 94.5t-236.5 263.5t-82.5 392t82.5 392t236.5 263.5t370 94.5q249 0 415 -124.5t233 -335.5l-243 -67q-42 141 -143 220.5t-262 79.5q-145 0 -241.5 -65t-145 -182.5t-49.5 -275.5q0 -158 48.5 -275.5t145.5 -182.5
t242 -65q161 0 262 80t143 220l243 -67q-67 -211 -233 -335.5t-415 -124.5z" />
    <glyph glyph-name="cdotaccent" unicode="&#x10b;" horiz-adv-x="1151" 
d="M517 1293v247h247v-247h-247zM609 -30q-167 0 -285 74.5t-180.5 203.5t-63.5 292q1 166 65.5 294.5t183.5 202t283 73.5q184 0 311.5 -92.5t166.5 -252.5l-240 -65q-28 87 -93 135.5t-148 48.5q-94 0 -155 -44.5t-90 -122.5t-29 -177q0 -154 69 -249t205 -95
q96 0 151.5 44t83.5 127l246 -55q-50 -165 -175 -253.5t-306 -88.5z" />
    <glyph glyph-name="Ccaron" unicode="&#x10c;" horiz-adv-x="1477" 
d="M375 1910h225l150 -178l149 178h225l-273 -315h-202zM749 -30q-216 0 -370 94.5t-236.5 263.5t-82.5 392t82.5 392t236.5 263.5t370 94.5q249 0 415 -124.5t233 -335.5l-243 -67q-42 141 -143 220.5t-262 79.5q-145 0 -241.5 -65t-145 -182.5t-49.5 -275.5
q0 -158 48.5 -275.5t145.5 -182.5t242 -65q161 0 262 80t143 220l243 -67q-67 -211 -233 -335.5t-415 -124.5z" />
    <glyph glyph-name="ccaron" unicode="&#x10d;" horiz-adv-x="1151" 
d="M235 1550h225l149 -178l149 178h225l-273 -315h-202zM609 -30q-167 0 -285 74.5t-180.5 203.5t-63.5 292q1 166 65.5 294.5t183.5 202t283 73.5q184 0 311.5 -92.5t166.5 -252.5l-240 -65q-28 87 -93 135.5t-148 48.5q-94 0 -155 -44.5t-90 -122.5t-29 -177
q0 -154 69 -249t205 -95q96 0 151.5 44t83.5 127l246 -55q-50 -165 -175 -253.5t-306 -88.5z" />
    <glyph glyph-name="Dcaron" unicode="&#x10e;" horiz-adv-x="1401" 
d="M247 1910h225l149 -178l150 178h225l-274 -315h-202zM140 0v1440h459q18 0 71.5 -1t103.5 -7q171 -22 289.5 -121.5t179.5 -253.5t61 -337t-61 -337t-179.5 -253.5t-289.5 -121.5q-49 -6 -103 -7t-72 -1h-459zM385 227h214q30 0 76.5 2t82.5 9q102 19 166 91t94.5 175
t30.5 216q0 117 -31 220t-95.5 173t-164.5 89q-36 8 -82.5 9.5t-76.5 1.5h-214v-986z" />
    <glyph glyph-name="dcaron" unicode="&#x10f;" horiz-adv-x="1571" 
d="M573 -30q-149 0 -260 75t-172 204t-61 291q0 164 61.5 292.5t174.5 203t266 74.5q154 0 258.5 -74.5t158.5 -203.5t54 -292q0 -161 -54 -290.5t-161 -204.5t-265 -75zM610 186q97 0 156.5 44.5t87 124.5t27.5 185q0 106 -27.5 185.5t-85.5 124t-150 44.5
q-97 0 -160 -47.5t-93 -128t-30 -178.5q0 -99 29.5 -179.5t90.5 -127.5t155 -47zM881 0v758h-30v682h243v-1440h-213zM1257 932l14 104q46 -4 73 15.5t36.5 55t4.5 80.5h-128v257h247v-267q0 -131 -62 -198t-185 -47z" />
    <glyph glyph-name="Dcroat" unicode="&#x110;" horiz-adv-x="1404" 
d="M20 626v189h675v-189h-675zM143 0v1440h459q18 0 71.5 -1t103.5 -7q171 -22 289.5 -121.5t179.5 -253.5t61 -337t-61 -337t-179.5 -253.5t-289.5 -121.5q-49 -6 -103 -7t-72 -1h-459zM388 227h214q30 0 76.5 2t82.5 9q102 19 166 91t94.5 175t30.5 216q0 117 -31 220
t-95.5 173t-164.5 89q-36 8 -82.5 9.5t-76.5 1.5h-214v-986z" />
    <glyph glyph-name="dcroat" unicode="&#x111;" horiz-adv-x="1234" 
d="M688 1167v187h534v-187h-534zM573 -30q-149 0 -260 75t-172 204t-61 291q0 164 61.5 292.5t174.5 203t266 74.5q154 0 258.5 -74.5t158.5 -203.5t54 -292q0 -161 -54 -290.5t-161 -204.5t-265 -75zM610 186q97 0 156.5 44.5t87 124.5t27.5 185q0 106 -27.5 185.5
t-85.5 124t-150 44.5q-97 0 -160 -47.5t-93 -128t-30 -178.5q0 -99 29.5 -179.5t90.5 -127.5t155 -47zM881 0v758h-30v682h243v-1440h-213z" />
    <glyph glyph-name="Emacron" unicode="&#x112;" horiz-adv-x="1170" 
d="M347 1680v187h533v-187h-533zM140 0v1440h930v-226h-689v-355h569v-226h-569v-407h689v-226h-930z" />
    <glyph glyph-name="emacron" unicode="&#x113;" horiz-adv-x="1204" 
d="M371 1320v187h533v-187h-533zM631 -30q-164 0 -288 71t-193.5 197t-69.5 290q0 177 68 307.5t189 202.5t280 72q168 0 285.5 -78.5t174.5 -221.5t43 -337h-239v88q-1 176 -62 257t-192 81q-148 0 -220 -91.5t-72 -267.5q0 -164 72 -254t210 -90q89 0 153.5 39.5
t99.5 114.5l238 -72q-62 -146 -191.5 -227t-285.5 -81zM259 473v182h743v-182h-743z" />
    <glyph glyph-name="Edotaccent" unicode="&#x116;" horiz-adv-x="1170" 
d="M482 1653v247h246v-247h-246zM140 0v1440h930v-226h-689v-355h569v-226h-569v-407h689v-226h-930z" />
    <glyph glyph-name="edotaccent" unicode="&#x117;" horiz-adv-x="1204" 
d="M496 1293v247h246v-247h-246zM631 -30q-164 0 -288 71t-193.5 197t-69.5 290q0 177 68 307.5t189 202.5t280 72q168 0 285.5 -78.5t174.5 -221.5t43 -337h-239v88q-1 176 -62 257t-192 81q-148 0 -220 -91.5t-72 -267.5q0 -164 72 -254t210 -90q89 0 153.5 39.5
t99.5 114.5l238 -72q-62 -146 -191.5 -227t-285.5 -81zM259 473v182h743v-182h-743z" />
    <glyph glyph-name="Eogonek" unicode="&#x118;" horiz-adv-x="1170" 
d="M875 -479q-63 0 -111.5 31t-76 80.5t-27.5 106.5q0 72 40.5 144.5t109.5 134.5t155 103l105 -121q-61 -33 -111.5 -76.5t-80.5 -87.5t-30 -78q0 -25 17 -42t41 -17q17 0 36.5 9t37.5 26l87 -113q-36 -48 -87 -74t-105 -26zM140 0v1440h930v-226h-689v-355h569v-226h-569
v-407h689v-226h-930z" />
    <glyph glyph-name="eogonek" unicode="&#x119;" horiz-adv-x="1204" 
d="M957 -461q-67 -29 -140.5 -10t-118.5 74q-38 48 -48.5 117t17.5 136q19 44 47 90.5t51 80.5q15 22 41 58t55.5 75t54.5 73l156 -23q-23 -38 -46 -74.5t-44.5 -70.5t-39.5 -62.5t-31 -51.5q-27 -46 -46 -86.5t-28 -70.5q-4 -13 -4.5 -35.5t13.5 -38.5q22 -24 57.5 -15.5
t61.5 29.5l87 -113q-16 -25 -39.5 -46t-55.5 -36zM631 -30q-164 0 -288 71t-193.5 197t-69.5 290q0 177 68 307.5t189 202.5t280 72q168 0 285.5 -78.5t174.5 -221.5t43 -337h-239v88q-1 176 -62 257t-192 81q-148 0 -220 -91.5t-72 -267.5q0 -164 72 -254t210 -90
q89 0 153.5 39.5t99.5 114.5l238 -72q-62 -146 -191.5 -227t-285.5 -81zM259 473v182h743v-182h-743z" />
    <glyph glyph-name="Ecaron" unicode="&#x11a;" horiz-adv-x="1170" 
d="M237 1910h225l149 -178l149 178h225l-273 -315h-202zM140 0v1440h930v-226h-689v-355h569v-226h-569v-407h689v-226h-930z" />
    <glyph glyph-name="ecaron" unicode="&#x11b;" horiz-adv-x="1204" 
d="M240 1550h225l149 -178l149 178h225l-273 -315h-202zM631 -30q-164 0 -288 71t-193.5 197t-69.5 290q0 177 68 307.5t189 202.5t280 72q168 0 285.5 -78.5t174.5 -221.5t43 -337h-239v88q-1 176 -62 257t-192 81q-148 0 -220 -91.5t-72 -267.5q0 -164 72 -254t210 -90
q89 0 153.5 39.5t99.5 114.5l238 -72q-62 -146 -191.5 -227t-285.5 -81zM259 473v182h743v-182h-743z" />
    <glyph glyph-name="Gcircumflex" unicode="&#x11c;" horiz-adv-x="1464" 
d="M350 1595l274 315h201l274 -315h-225l-150 178l-149 -178h-225zM734 -30q-140 0 -262.5 49.5t-215 145.5t-144.5 235.5t-52 319.5q0 236 88 403.5t241 257t345 89.5q266 0 421.5 -123.5t210.5 -346.5l-246 -39q-41 128 -134 204.5t-237 76.5q-145 2 -241 -63t-144.5 -183
t-48.5 -276t48 -274.5t144.5 -181.5t241.5 -67q109 -1 191 39.5t134 123t70 206.5h-254v189h510q2 -16 3 -47t1 -37q0 -204 -80.5 -362.5t-230.5 -248.5t-359 -90z" />
    <glyph glyph-name="gcircumflex" unicode="&#x11d;" horiz-adv-x="1232" 
d="M246 1235l273 315h202l273 -315h-225l-149 178l-149 -178h-225zM594 -510q-90 0 -172.5 28t-148.5 80.5t-108 126.5l222 110q31 -59 87.5 -87.5t120.5 -28.5q75 0 134 26.5t91.5 78t30.5 128.5v307h30v821h211v-1132q0 -41 -3.5 -78.5t-11.5 -73.5q-24 -105 -92 -172.5
t-168.5 -100.5t-222.5 -33zM573 -30q-149 0 -260 75t-172 204t-61 291q0 164 61.5 292.5t174.5 203t266 74.5q154 0 258.5 -74.5t158.5 -203.5t54 -292q0 -161 -54 -290.5t-161 -204.5t-265 -75zM610 186q97 0 156.5 44.5t87 124.5t27.5 185q0 106 -27.5 185.5t-85.5 124
t-150 44.5q-97 0 -160 -47.5t-93 -128t-30 -178.5q0 -99 29.5 -179.5t90.5 -127.5t155 -47z" />
    <glyph glyph-name="Gbreve" unicode="&#x11e;" horiz-adv-x="1464" 
d="M740 1562q-84 0 -152.5 41t-109.5 109.5t-41 152.5h188q0 -48 33.5 -81.5t81.5 -33.5t81.5 33.5t33.5 81.5h188q0 -84 -41 -152.5t-109.5 -109.5t-152.5 -41zM734 -30q-140 0 -262.5 49.5t-215 145.5t-144.5 235.5t-52 319.5q0 236 88 403.5t241 257t345 89.5
q266 0 421.5 -123.5t210.5 -346.5l-246 -39q-41 128 -134 204.5t-237 76.5q-145 2 -241 -63t-144.5 -183t-48.5 -276t48 -274.5t144.5 -181.5t241.5 -67q109 -1 191 39.5t134 123t70 206.5h-254v189h510q2 -16 3 -47t1 -37q0 -204 -80.5 -362.5t-230.5 -248.5t-359 -90z" />
    <glyph glyph-name="gbreve" unicode="&#x11f;" horiz-adv-x="1232" 
d="M676 1202q-84 0 -153 41t-109.5 109.5t-40.5 152.5h188q0 -48 33.5 -81.5t81.5 -33.5t81.5 33.5t33.5 81.5h188q0 -84 -41 -152.5t-110 -109.5t-152 -41zM594 -510q-90 0 -172.5 28t-148.5 80.5t-108 126.5l222 110q31 -59 87.5 -87.5t120.5 -28.5q75 0 134 26.5t91.5 78
t30.5 128.5v307h30v821h211v-1132q0 -41 -3.5 -78.5t-11.5 -73.5q-24 -105 -92 -172.5t-168.5 -100.5t-222.5 -33zM573 -30q-149 0 -260 75t-172 204t-61 291q0 164 61.5 292.5t174.5 203t266 74.5q154 0 258.5 -74.5t158.5 -203.5t54 -292q0 -161 -54 -290.5t-161 -204.5
t-265 -75zM610 186q97 0 156.5 44.5t87 124.5t27.5 185q0 106 -27.5 185.5t-85.5 124t-150 44.5q-97 0 -160 -47.5t-93 -128t-30 -178.5q0 -99 29.5 -179.5t90.5 -127.5t155 -47z" />
    <glyph glyph-name="Gdotaccent" unicode="&#x120;" horiz-adv-x="1464" 
d="M633 1653v247h246v-247h-246zM734 -30q-140 0 -262.5 49.5t-215 145.5t-144.5 235.5t-52 319.5q0 236 88 403.5t241 257t345 89.5q266 0 421.5 -123.5t210.5 -346.5l-246 -39q-41 128 -134 204.5t-237 76.5q-145 2 -241 -63t-144.5 -183t-48.5 -276t48 -274.5
t144.5 -181.5t241.5 -67q109 -1 191 39.5t134 123t70 206.5h-254v189h510q2 -16 3 -47t1 -37q0 -204 -80.5 -362.5t-230.5 -248.5t-359 -90z" />
    <glyph glyph-name="gdotaccent" unicode="&#x121;" horiz-adv-x="1232" 
d="M538 1293v247h246v-247h-246zM594 -510q-90 0 -172.5 28t-148.5 80.5t-108 126.5l222 110q31 -59 87.5 -87.5t120.5 -28.5q75 0 134 26.5t91.5 78t30.5 128.5v307h30v821h211v-1132q0 -41 -3.5 -78.5t-11.5 -73.5q-24 -105 -92 -172.5t-168.5 -100.5t-222.5 -33zM573 -30
q-149 0 -260 75t-172 204t-61 291q0 164 61.5 292.5t174.5 203t266 74.5q154 0 258.5 -74.5t158.5 -203.5t54 -292q0 -161 -54 -290.5t-161 -204.5t-265 -75zM610 186q97 0 156.5 44.5t87 124.5t27.5 185q0 106 -27.5 185.5t-85.5 124t-150 44.5q-97 0 -160 -47.5t-93 -128
t-30 -178.5q0 -99 29.5 -179.5t90.5 -127.5t155 -47z" />
    <glyph glyph-name="uni0122" unicode="&#x122;" horiz-adv-x="1464" 
d="M651 -610v105q15 0 46 6.5t57 29t26 69.5h-129v233h234v-233q0 -95 -66.5 -152.5t-167.5 -57.5zM734 -30q-140 0 -262.5 49.5t-215 145.5t-144.5 235.5t-52 319.5q0 236 88 403.5t241 257t345 89.5q266 0 421.5 -123.5t210.5 -346.5l-246 -39q-41 128 -134 204.5
t-237 76.5q-145 2 -241 -63t-144.5 -183t-48.5 -276t48 -274.5t144.5 -181.5t241.5 -67q109 -1 191 39.5t134 123t70 206.5h-254v189h510q2 -16 3 -47t1 -37q0 -204 -80.5 -362.5t-230.5 -248.5t-359 -90z" />
    <glyph glyph-name="uni0123" unicode="&#x123;" horiz-adv-x="1232" 
d="M753 1736v-105q-15 0 -46 -6.5t-57.5 -29t-25.5 -68.5h129v-234h-234v234q0 95 66.5 152t167.5 57zM594 -510q-90 0 -172.5 28t-148.5 80.5t-108 126.5l222 110q31 -59 87.5 -87.5t120.5 -28.5q75 0 134 26.5t91.5 78t30.5 128.5v307h30v821h211v-1132q0 -41 -3.5 -78.5
t-11.5 -73.5q-24 -105 -92 -172.5t-168.5 -100.5t-222.5 -33zM573 -30q-149 0 -260 75t-172 204t-61 291q0 164 61.5 292.5t174.5 203t266 74.5q154 0 258.5 -74.5t158.5 -203.5t54 -292q0 -161 -54 -290.5t-161 -204.5t-265 -75zM610 186q97 0 156.5 44.5t87 124.5
t27.5 185q0 106 -27.5 185.5t-85.5 124t-150 44.5q-97 0 -160 -47.5t-93 -128t-30 -178.5q0 -99 29.5 -179.5t90.5 -127.5t155 -47z" />
    <glyph glyph-name="Hcircumflex" unicode="&#x124;" horiz-adv-x="1443" 
d="M344 1595l273 315h202l274 -315h-225l-150 178l-149 -178h-225zM140 0v1440h241v-606h682v606h240v-1440h-240v608h-682v-608h-241z" />
    <glyph glyph-name="hcircumflex" unicode="&#x125;" 
d="M-132 1595l273 315h202l274 -315h-225l-150 178l-149 -178h-225zM887 0v520q0 51 -7 113t-32.5 119.5t-76 94.5t-136.5 37q-46 0 -91 -15t-81.5 -51.5t-58.5 -100t-22 -162.5l-143 61q0 138 53.5 250t157.5 178.5t256 66.5q120 0 198 -40t124 -102t68 -132t28.5 -132.5
t6.5 -101.5v-603h-244zM138 0v1440h215v-758h29v-682h-244z" />
    <glyph glyph-name="Hbar" unicode="&#x126;" horiz-adv-x="1483" 
d="M160 0v1440h241v-606h682v606h240v-1440h-240v608h-682v-608h-241zM20 989v226h1443v-226h-1443z" />
    <glyph glyph-name="hbar" unicode="&#x127;" 
d="M30 1167v187h533v-187h-533zM887 0v520q0 51 -7 113t-32.5 119.5t-76 94.5t-136.5 37q-46 0 -91 -15t-81.5 -51.5t-58.5 -100t-22 -162.5l-143 61q0 138 53.5 250t157.5 178.5t256 66.5q120 0 198 -40t124 -102t68 -132t28.5 -132.5t6.5 -101.5v-603h-244zM138 0v1440
h215v-758h29v-682h-244z" />
    <glyph glyph-name="Itilde" unicode="&#x128;" horiz-adv-x="561" 
d="M447 1600q-48 0 -91 21t-83 48.5t-74.5 48.5t-63.5 21q-32 0 -43.5 -32.5t0.5 -79.5h-152q-28 120 14.5 203.5t158.5 83.5q48 0 91.5 -21t83 -48.5t74.5 -48.5t64 -21q31 0 43.5 32.5t-1.5 80.5h152q30 -119 -13 -203.5t-160 -84.5zM160 0v1440h241v-1440h-241z" />
    <glyph glyph-name="itilde" unicode="&#x129;" horiz-adv-x="561" 
d="M447 1240q-48 0 -91 21t-83 48.5t-74.5 48.5t-63.5 21q-32 0 -43.5 -32.5t0.5 -79.5h-152q-28 120 14.5 203.5t158.5 83.5q48 0 91.5 -21t83 -48.5t74.5 -48.5t64 -21q31 0 43.5 32.5t-1.5 80.5h152q30 -119 -13 -203.5t-160 -84.5zM160 0v1080h241v-1080h-241z" />
    <glyph glyph-name="Imacron" unicode="&#x12a;" horiz-adv-x="561" 
d="M14 1680v187h533v-187h-533zM160 0v1440h241v-1440h-241z" />
    <glyph glyph-name="imacron" unicode="&#x12b;" horiz-adv-x="561" 
d="M14 1320v187h533v-187h-533zM160 0v1080h241v-1080h-241z" />
    <glyph glyph-name="Iogonek" unicode="&#x12e;" horiz-adv-x="561" 
d="M205 -479q-63 0 -111 31t-75.5 80.5t-27.5 106.5q0 72 40.5 144.5t109 134.5t154.5 103l106 -121q-61 -33 -111.5 -76.5t-80.5 -87.5t-30 -78q0 -25 17 -42t41 -17q17 0 36 9t38 26l87 -113q-36 -48 -87 -74t-106 -26zM160 0v1440h241v-1440h-241z" />
    <glyph glyph-name="iogonek" unicode="&#x12f;" horiz-adv-x="561" 
d="M205 -479q-63 0 -111 31t-75.5 80.5t-27.5 106.5q0 72 40.5 144.5t109 134.5t154.5 103l106 -121q-61 -33 -111.5 -76.5t-80.5 -87.5t-30 -78q0 -25 17 -42t41 -17q17 0 36 9t38 26l87 -113q-36 -48 -87 -74t-106 -26zM160 1244v221h241v-221h-241zM160 0v1080h241v-1080
h-241z" />
    <glyph glyph-name="Idotaccent" unicode="&#x130;" horiz-adv-x="561" 
d="M157 1653v247h247v-247h-247zM160 0v1440h241v-1440h-241z" />
    <glyph glyph-name="dotlessi" unicode="&#x131;" horiz-adv-x="561" 
d="M160 0v1080h241v-1080h-241z" />
    <glyph glyph-name="Jcircumflex" unicode="&#x134;" horiz-adv-x="1001" 
d="M341 1595l274 315h202l273 -315h-225l-149 178l-150 -178h-225zM428 -30q-165 0 -274.5 86t-153.5 232l238 57q11 -61 64 -105t117 -44q42 0 89 22.5t70 72.5q14 32 16.5 76.5t2.5 103.5v969h244v-969q0 -67 -0.5 -117.5t-10 -95t-37.5 -91.5q-59 -102 -154 -149.5
t-211 -47.5z" />
    <glyph glyph-name="jcircumflex" unicode="&#x135;" horiz-adv-x="577" 
d="M-20 -480v226h51q88 0 125 41t37 121v1172h240v-1280q0 -131 -76.5 -205.5t-212.5 -74.5h-164zM-65 1235l273 315h202l273 -315h-225l-149 178l-150 -178h-224z" />
    <glyph glyph-name="uni0136" unicode="&#x136;" horiz-adv-x="1294" 
d="M576 -610v105q15 0 46 6.5t57 29t25 69.5h-128v233h233v-233q0 -95 -66 -152.5t-167 -57.5zM140 0v1440h241v-668l575 668h296l-619 -706l661 -734h-306l-607 672v-672h-241z" />
    <glyph glyph-name="uni0137" unicode="&#x137;" horiz-adv-x="1076" 
d="M481 -610v105q15 0 46 6.5t57 29t26 69.5h-129v233h234v-233q0 -95 -66.5 -152.5t-167.5 -57.5zM138 0l2 1440h244v-880l395 520h301l-419 -540l455 -540h-319l-413 520v-520h-246z" />
    <glyph glyph-name="Lacute" unicode="&#x139;" horiz-adv-x="1067" 
d="M375 1595h-183l155 370h183zM160 0v1440h241v-1214h636v-226h-877z" />
    <glyph glyph-name="lacute" unicode="&#x13a;" horiz-adv-x="561" 
d="M375 1595h-183l155 370h183zM160 0v1470h241v-1470h-241z" />
    <glyph glyph-name="uni013B" unicode="&#x13b;" horiz-adv-x="1067" 
d="M482 -610v105q15 0 46 6.5t57 29t25 69.5h-128v233h233v-233q0 -95 -66 -152.5t-167 -57.5zM160 0v1440h241v-1214h636v-226h-877z" />
    <glyph glyph-name="uni013C" unicode="&#x13c;" horiz-adv-x="561" 
d="M164 -610v105q15 0 46 6.5t57 29t25 69.5h-128v233h233v-233q0 -95 -66 -152.5t-167 -57.5zM160 0v1470h241v-1470h-241z" />
    <glyph glyph-name="Lcaron" unicode="&#x13d;" horiz-adv-x="1067" 
d="M160 0v1440h241v-1214h636v-226h-877zM652 932l14 104q46 -4 73 15.5t36.5 55t4.5 80.5h-128v257h247v-267q0 -131 -62 -198t-185 -47z" />
    <glyph glyph-name="lcaron" unicode="&#x13e;" horiz-adv-x="877" 
d="M160 0v1470h241v-1470h-241zM562 932l14 104q46 -4 73 15.5t36.5 55t4.5 80.5h-128v257h247v-267q0 -131 -62 -198t-185 -47z" />
    <glyph glyph-name="Lslash" unicode="&#x141;" horiz-adv-x="1100" 
d="M63 343v261l688 395v-262zM193 0v1440h241v-1214h636v-226h-877z" />
    <glyph glyph-name="lslash" unicode="&#x142;" horiz-adv-x="797" 
d="M55 407v261l687 395v-262zM278 0v1470h241v-1470h-241z" />
    <glyph glyph-name="Nacute" unicode="&#x143;" horiz-adv-x="1436" 
d="M824 1595h-183l154 370h183zM140 0v1440h244l668 -1015v1015h244v-1440h-244l-668 1015v-1015h-244z" />
    <glyph glyph-name="nacute" unicode="&#x144;" 
d="M728 1235h-183l154 370h183zM887 0v520q0 51 -7 113t-32.5 119.5t-76 94.5t-136.5 37q-46 0 -91 -15t-81.5 -51.5t-58.5 -100t-22 -162.5l-143 61q0 138 53.5 250t157.5 178.5t256 66.5q120 0 198 -40t124 -102t68 -132t28.5 -132.5t6.5 -101.5v-603h-244zM138 0v1080
h215v-335h29v-745h-244z" />
    <glyph glyph-name="uni0145" unicode="&#x145;" horiz-adv-x="1436" 
d="M622 -610v105q15 0 46 6.5t57 29t26 69.5h-129v233h233v-233q0 -95 -66 -152.5t-167 -57.5zM140 0v1440h244l668 -1015v1015h244v-1440h-244l-668 1015v-1015h-244z" />
    <glyph glyph-name="uni0146" unicode="&#x146;" 
d="M524 -610v105q15 0 46 6.5t57 29t26 69.5h-129v233h233v-233q0 -95 -66 -152.5t-167 -57.5zM887 0v520q0 51 -7 113t-32.5 119.5t-76 94.5t-136.5 37q-46 0 -91 -15t-81.5 -51.5t-58.5 -100t-22 -162.5l-143 61q0 138 53.5 250t157.5 178.5t256 66.5q120 0 198 -40
t124 -102t68 -132t28.5 -132.5t6.5 -101.5v-603h-244zM138 0v1080h215v-335h29v-745h-244z" />
    <glyph glyph-name="Ncaron" unicode="&#x147;" horiz-adv-x="1436" 
d="M362 1910h225l150 -178l149 178h225l-273 -315h-202zM140 0v1440h244l668 -1015v1015h244v-1440h-244l-668 1015v-1015h-244z" />
    <glyph glyph-name="ncaron" unicode="&#x148;" 
d="M249 1550h225l149 -178l150 178h225l-274 -315h-202zM887 0v520q0 51 -7 113t-32.5 119.5t-76 94.5t-136.5 37q-46 0 -91 -15t-81.5 -51.5t-58.5 -100t-22 -162.5l-143 61q0 138 53.5 250t157.5 178.5t256 66.5q120 0 198 -40t124 -102t68 -132t28.5 -132.5t6.5 -101.5
v-603h-244zM138 0v1080h215v-335h29v-745h-244z" />
    <glyph glyph-name="Eng" unicode="&#x14a;" horiz-adv-x="1436" 
d="M1052 1440h244v-1618q0 -141 -68 -210.5t-208 -69.5q-36 0 -73.5 4.5t-73.5 13.5v181q35 -3 50.5 -4.5t29.5 -1.5q72 0 107 28t35 87q0 46 -22 97.5t-83 147.5l-606 920v-1015h-244v1440h244l668 -1015v1015z" />
    <glyph glyph-name="eng" unicode="&#x14b;" 
d="M939 -449q-68 -13 -124 -8t-106 17v172q27 -2 58 -2.5t58.5 10.5t44.5 41.5t17 90.5v132h244v-182q0 -113 -51 -183t-141 -88zM887 0v520q0 51 -7 113t-32.5 119.5t-76 94.5t-136.5 37q-46 0 -91 -15t-81.5 -51.5t-58.5 -100t-22 -162.5l-143 61q0 138 53.5 250
t157.5 178.5t256 66.5q120 0 198 -40t124 -102t68 -132t28.5 -132.5t6.5 -101.5v-603h-244zM138 0v1080h215v-335h29v-745h-244z" />
    <glyph glyph-name="Omacron" unicode="&#x14c;" horiz-adv-x="1499" 
d="M483 1680v187h533v-187h-533zM749 -30q-216 0 -370 94.5t-236.5 263.5t-82.5 392t82.5 392t236.5 263.5t370 94.5t370.5 -94.5t237 -263.5t82.5 -392t-82.5 -392t-237 -263.5t-370.5 -94.5zM749 197q145 -1 241.5 64t145 183t48.5 276t-48.5 274.5t-145 181.5t-241.5 67
q-145 1 -241 -64t-144.5 -183t-48.5 -276t48 -274.5t144.5 -181.5t241.5 -67z" />
    <glyph glyph-name="omacron" unicode="&#x14d;" horiz-adv-x="1236" 
d="M352 1320v187h534v-187h-534zM617 -30q-162 0 -283 73t-187.5 201.5t-66.5 295.5q0 170 68 298t189 200t280 72q163 0 284 -73t188 -201.5t67 -295.5q0 -168 -67.5 -296.5t-188.5 -201t-283 -72.5zM617 196q144 0 214 96t70 248q0 157 -71 250.5t-213 93.5
q-97 0 -159.5 -43.5t-92.5 -121t-30 -179.5q0 -157 71.5 -250.5t210.5 -93.5z" />
    <glyph glyph-name="Ohungarumlaut" unicode="&#x150;" horiz-adv-x="1499" 
d="M1031 1595h-183l154 370h183zM619 1595h-182l154 370h183zM749 -30q-216 0 -370 94.5t-236.5 263.5t-82.5 392t82.5 392t236.5 263.5t370 94.5t370.5 -94.5t237 -263.5t82.5 -392t-82.5 -392t-237 -263.5t-370.5 -94.5zM749 197q145 -1 241.5 64t145 183t48.5 276
t-48.5 274.5t-145 181.5t-241.5 67q-145 1 -241 -64t-144.5 -183t-48.5 -276t48 -274.5t144.5 -181.5t241.5 -67z" />
    <glyph glyph-name="ohungarumlaut" unicode="&#x151;" horiz-adv-x="1236" 
d="M896 1235h-183l155 370h183zM485 1235h-183l154 370h183zM617 -30q-162 0 -283 73t-187.5 201.5t-66.5 295.5q0 170 68 298t189 200t280 72q163 0 284 -73t188 -201.5t67 -295.5q0 -168 -67.5 -296.5t-188.5 -201t-283 -72.5zM617 196q144 0 214 96t70 248
q0 157 -71 250.5t-213 93.5q-97 0 -159.5 -43.5t-92.5 -121t-30 -179.5q0 -157 71.5 -250.5t210.5 -93.5z" />
    <glyph glyph-name="OE" unicode="&#x152;" horiz-adv-x="2226" 
d="M749 -30q-216 0 -370 94.5t-236.5 263.5t-82.5 392t82.5 392t236.5 263.5t370 94.5t370.5 -94.5t237 -263.5t82.5 -392t-82.5 -392t-237 -263.5t-370.5 -94.5zM749 197q145 -1 241.5 64t145 183t48.5 276t-48.5 274.5t-145 181.5t-241.5 67q-145 1 -241 -64t-144.5 -183
t-48.5 -276t48 -274.5t144.5 -181.5t241.5 -67zM1196 0v1440h930v-226h-689v-355h569v-226h-569v-407h689v-226h-930z" />
    <glyph glyph-name="oe" unicode="&#x153;" horiz-adv-x="2026" 
d="M1453 -30q-164 0 -288 71t-193.5 197t-69.5 290q0 177 68 307.5t189 202.5t280 72q168 0 285.5 -78.5t174.5 -221.5t43 -337h-239v88q-1 176 -62 257t-192 81q-148 0 -220 -91.5t-72 -267.5q0 -164 72 -254t210 -90q89 0 153.5 39.5t99.5 114.5l238 -72
q-62 -146 -191.5 -227t-285.5 -81zM1081 473v182h743v-182h-743zM617 -30q-162 0 -283 73t-187.5 201.5t-66.5 295.5q0 170 68 298t189 200t280 72q163 0 284 -73t188 -201.5t67 -295.5q0 -168 -67.5 -296.5t-188.5 -201t-283 -72.5zM617 196q144 0 214 96t70 248
q0 157 -71 250.5t-213 93.5q-97 0 -159.5 -43.5t-92.5 -121t-30 -179.5q0 -157 71.5 -250.5t210.5 -93.5z" />
    <glyph glyph-name="Racute" unicode="&#x154;" horiz-adv-x="1320" 
d="M721 1595h-183l154 370h183zM140 0v1440h595q21 0 54 -1.5t61 -6.5q125 -19 206.5 -83t121 -161.5t39.5 -216.5q0 -176 -89 -302.5t-273 -156.5l-103 -9h-371v-503h-241zM967 0l-284 586l245 54l312 -640h-273zM381 728h344q20 0 45 2t46 8q60 15 94.5 53t49 86t14.5 94
t-14.5 94.5t-49 86.5t-94.5 53q-21 6 -46 7.5t-45 1.5h-344v-486z" />
    <glyph glyph-name="racute" unicode="&#x155;" horiz-adv-x="798" 
d="M475 1235h-183l155 370h183zM140 0v1080h213v-263l-26 34q20 54 53.5 98.5t80.5 73.5q40 27 88.5 42.5t99.5 19t99 -4.5v-225q-48 14 -110.5 9t-112.5 -35q-50 -27 -81.5 -69t-46.5 -95.5t-15 -115.5v-549h-242z" />
    <glyph glyph-name="uni0156" unicode="&#x156;" horiz-adv-x="1320" 
d="M540 -610v105q15 0 46 6.5t57 29t26 69.5h-129v233h233v-233q0 -95 -66 -152.5t-167 -57.5zM140 0v1440h595q21 0 54 -1.5t61 -6.5q125 -19 206.5 -83t121 -161.5t39.5 -216.5q0 -176 -89 -302.5t-273 -156.5l-103 -9h-371v-503h-241zM967 0l-284 586l245 54l312 -640
h-273zM381 728h344q20 0 45 2t46 8q60 15 94.5 53t49 86t14.5 94t-14.5 94.5t-49 86.5t-94.5 53q-21 6 -46 7.5t-45 1.5h-344v-486z" />
    <glyph glyph-name="uni0157" unicode="&#x157;" horiz-adv-x="798" 
d="M145 -610v105q15 0 46 6.5t57 29t26 69.5h-129v233h234v-233q0 -95 -66.5 -152.5t-167.5 -57.5zM140 0v1080h213v-263l-26 34q20 54 53.5 98.5t80.5 73.5q40 27 88.5 42.5t99.5 19t99 -4.5v-225q-48 14 -110.5 9t-112.5 -35q-50 -27 -81.5 -69t-46.5 -95.5t-15 -115.5
v-549h-242z" />
    <glyph glyph-name="Rcaron" unicode="&#x158;" horiz-adv-x="1320" 
d="M236 1910h225l149 -178l150 178h225l-274 -315h-202zM140 0v1440h595q21 0 54 -1.5t61 -6.5q125 -19 206.5 -83t121 -161.5t39.5 -216.5q0 -176 -89 -302.5t-273 -156.5l-103 -9h-371v-503h-241zM967 0l-284 586l245 54l312 -640h-273zM381 728h344q20 0 45 2t46 8
q60 15 94.5 53t49 86t14.5 94t-14.5 94.5t-49 86.5t-94.5 53q-21 6 -46 7.5t-45 1.5h-344v-486z" />
    <glyph glyph-name="rcaron" unicode="&#x159;" horiz-adv-x="798" 
d="M67 1550h225l150 -178l149 178h225l-273 -315h-202zM140 0v1080h213v-263l-26 34q20 54 53.5 98.5t80.5 73.5q40 27 88.5 42.5t99.5 19t99 -4.5v-225q-48 14 -110.5 9t-112.5 -35q-50 -27 -81.5 -69t-46.5 -95.5t-15 -115.5v-549h-242z" />
    <glyph glyph-name="Sacute" unicode="&#x15a;" horiz-adv-x="1315" 
d="M761 1595h-183l154 370h183zM673 -30q-158 0 -284.5 55t-208 157.5t-103.5 243.5l250 38q32 -128 131.5 -198t229.5 -70q77 0 145 24t110.5 70t42.5 113q0 30 -10 55.5t-29.5 45.5t-50 36.5t-70.5 28.5l-372 110q-48 14 -103.5 37.5t-105 65t-81 106t-31.5 159.5
q0 139 70.5 233.5t190 141.5t265.5 46q148 -1 264 -50.5t194 -143.5t110 -227l-259 -45q-16 76 -61.5 129.5t-111 81.5t-139.5 30q-72 1 -133.5 -21.5t-99 -64.5t-37.5 -98q0 -53 32 -86.5t79.5 -53t96.5 -32.5l258 -72q53 -14 119 -38t127 -67t100.5 -113t39.5 -178
q0 -112 -46.5 -196.5t-125.5 -140.5t-180.5 -84t-212.5 -28z" />
    <glyph glyph-name="sacute" unicode="&#x15b;" horiz-adv-x="1083" 
d="M632 1235h-182l154 370h183zM557 -30q-200 0 -325 90t-152 253l246 38q19 -80 84 -126t164 -46q87 0 134.5 34.5t47.5 94.5q0 37 -17.5 59.5t-76.5 43.5t-181 53q-136 36 -216 77.5t-115 98.5t-35 138q0 101 53 176t148 115.5t224 40.5q126 0 223.5 -39t157.5 -111
t74 -169l-246 -44q-9 69 -62.5 109t-142.5 45q-85 5 -137 -25.5t-52 -85.5q0 -31 21 -53t84.5 -44t189.5 -54q129 -33 206.5 -75.5t112 -101.5t34.5 -143q0 -163 -118.5 -256t-327.5 -93z" />
    <glyph glyph-name="Scircumflex" unicode="&#x15c;" horiz-adv-x="1315" 
d="M299 1595l273 315h202l273 -315h-225l-149 178l-149 -178h-225zM673 -30q-158 0 -284.5 55t-208 157.5t-103.5 243.5l250 38q32 -128 131.5 -198t229.5 -70q77 0 145 24t110.5 70t42.5 113q0 30 -10 55.5t-29.5 45.5t-50 36.5t-70.5 28.5l-372 110q-48 14 -103.5 37.5
t-105 65t-81 106t-31.5 159.5q0 139 70.5 233.5t190 141.5t265.5 46q148 -1 264 -50.5t194 -143.5t110 -227l-259 -45q-16 76 -61.5 129.5t-111 81.5t-139.5 30q-72 1 -133.5 -21.5t-99 -64.5t-37.5 -98q0 -53 32 -86.5t79.5 -53t96.5 -32.5l258 -72q53 -14 119 -38t127 -67
t100.5 -113t39.5 -178q0 -112 -46.5 -196.5t-125.5 -140.5t-180.5 -84t-212.5 -28z" />
    <glyph glyph-name="scircumflex" unicode="&#x15d;" horiz-adv-x="1083" 
d="M184 1235l273 315h202l273 -315h-225l-149 178l-149 -178h-225zM557 -30q-200 0 -325 90t-152 253l246 38q19 -80 84 -126t164 -46q87 0 134.5 34.5t47.5 94.5q0 37 -17.5 59.5t-76.5 43.5t-181 53q-136 36 -216 77.5t-115 98.5t-35 138q0 101 53 176t148 115.5t224 40.5
q126 0 223.5 -39t157.5 -111t74 -169l-246 -44q-9 69 -62.5 109t-142.5 45q-85 5 -137 -25.5t-52 -85.5q0 -31 21 -53t84.5 -44t189.5 -54q129 -33 206.5 -75.5t112 -101.5t34.5 -143q0 -163 -118.5 -256t-327.5 -93z" />
    <glyph glyph-name="Scedilla" unicode="&#x15e;" horiz-adv-x="1315" 
d="M673 -483q-40 0 -74.5 10.5t-63.5 25.5l53 143q41 -14 64 -14q30 0 46.5 17.5t16.5 36.5q0 39 -39.5 57t-91.5 33l71 205l146 1l-40 -116q58 -28 90 -74t32 -111q0 -95 -62.5 -154.5t-147.5 -59.5zM673 -30q-158 0 -284.5 55t-208 157.5t-103.5 243.5l250 38
q32 -128 131.5 -198t229.5 -70q77 0 145 24t110.5 70t42.5 113q0 30 -10 55.5t-29.5 45.5t-50 36.5t-70.5 28.5l-372 110q-48 14 -103.5 37.5t-105 65t-81 106t-31.5 159.5q0 139 70.5 233.5t190 141.5t265.5 46q148 -1 264 -50.5t194 -143.5t110 -227l-259 -45
q-16 76 -61.5 129.5t-111 81.5t-139.5 30q-72 1 -133.5 -21.5t-99 -64.5t-37.5 -98q0 -53 32 -86.5t79.5 -53t96.5 -32.5l258 -72q53 -14 119 -38t127 -67t100.5 -113t39.5 -178q0 -112 -46.5 -196.5t-125.5 -140.5t-180.5 -84t-212.5 -28z" />
    <glyph glyph-name="scedilla" unicode="&#x15f;" horiz-adv-x="1083" 
d="M527 -483q-41 0 -75 10.5t-63 25.5l53 143q40 -14 64 -14q30 0 46 17.5t16 36.5q0 39 -39 57t-91 33l71 205l145 1l-39 -116q57 -28 89 -74t32 -111q0 -95 -62.5 -154.5t-146.5 -59.5zM557 -30q-200 0 -325 90t-152 253l246 38q19 -80 84 -126t164 -46q87 0 134.5 34.5
t47.5 94.5q0 37 -17.5 59.5t-76.5 43.5t-181 53q-136 36 -216 77.5t-115 98.5t-35 138q0 101 53 176t148 115.5t224 40.5q126 0 223.5 -39t157.5 -111t74 -169l-246 -44q-9 69 -62.5 109t-142.5 45q-85 5 -137 -25.5t-52 -85.5q0 -31 21 -53t84.5 -44t189.5 -54
q129 -33 206.5 -75.5t112 -101.5t34.5 -143q0 -163 -118.5 -256t-327.5 -93z" />
    <glyph glyph-name="Scaron" unicode="&#x160;" horiz-adv-x="1315" 
d="M307 1910h225l149 -178l149 178h225l-273 -315h-202zM673 -30q-158 0 -284.5 55t-208 157.5t-103.5 243.5l250 38q32 -128 131.5 -198t229.5 -70q77 0 145 24t110.5 70t42.5 113q0 30 -10 55.5t-29.5 45.5t-50 36.5t-70.5 28.5l-372 110q-48 14 -103.5 37.5t-105 65
t-81 106t-31.5 159.5q0 139 70.5 233.5t190 141.5t265.5 46q148 -1 264 -50.5t194 -143.5t110 -227l-259 -45q-16 76 -61.5 129.5t-111 81.5t-139.5 30q-72 1 -133.5 -21.5t-99 -64.5t-37.5 -98q0 -53 32 -86.5t79.5 -53t96.5 -32.5l258 -72q53 -14 119 -38t127 -67
t100.5 -113t39.5 -178q0 -112 -46.5 -196.5t-125.5 -140.5t-180.5 -84t-212.5 -28z" />
    <glyph glyph-name="scaron" unicode="&#x161;" horiz-adv-x="1083" 
d="M181 1550h225l149 -178l149 178h225l-273 -315h-202zM557 -30q-200 0 -325 90t-152 253l246 38q19 -80 84 -126t164 -46q87 0 134.5 34.5t47.5 94.5q0 37 -17.5 59.5t-76.5 43.5t-181 53q-136 36 -216 77.5t-115 98.5t-35 138q0 101 53 176t148 115.5t224 40.5
q126 0 223.5 -39t157.5 -111t74 -169l-246 -44q-9 69 -62.5 109t-142.5 45q-85 5 -137 -25.5t-52 -85.5q0 -31 21 -53t84.5 -44t189.5 -54q129 -33 206.5 -75.5t112 -101.5t34.5 -143q0 -163 -118.5 -256t-327.5 -93z" />
    <glyph glyph-name="uni0162" unicode="&#x162;" horiz-adv-x="1213" 
d="M486 0v1214h-466v226h1173v-226h-466v-1214h-241zM558 -485q-40 0 -74.5 10.5t-63.5 25.5l53 143q41 -14 64 -14q30 0 46.5 17.5t16.5 36.5q0 39 -39 57t-92 33l71 205l146 1l-40 -116q58 -28 90 -74t32 -111q0 -95 -62.5 -154.5t-147.5 -59.5z" />
    <glyph glyph-name="uni0163" unicode="&#x163;" horiz-adv-x="866" 
d="M461 -483q-41 0 -75 10.5t-63 25.5l53 143q40 -14 64 -14q30 0 46 17.5t16 36.5q0 39 -39 57t-91 33l71 205l145 1l-39 -116q57 -28 89 -74t32 -111q0 -95 -62.5 -154.5t-146.5 -59.5zM773 0q-107 -20 -209.5 -17.5t-183.5 38t-123 112.5q-37 70 -39 143t-2 165v939h240
v-925q0 -65 1.5 -114t20.5 -80q36 -60 115 -67t180 8v-202zM20 891v189h753v-189h-753z" />
    <glyph glyph-name="Tcaron" unicode="&#x164;" horiz-adv-x="1213" 
d="M229 1910h225l149 -178l150 178h225l-274 -315h-202zM486 0v1214h-466v226h1173v-226h-466v-1214h-241z" />
    <glyph glyph-name="tcaron" unicode="&#x165;" horiz-adv-x="866" 
d="M773 0q-107 -20 -209.5 -17.5t-183.5 38t-123 112.5q-37 70 -39 143t-2 165v939h240v-925q0 -65 1.5 -114t20.5 -80q36 -60 115 -67t180 8v-202zM20 891v189h753v-189h-753zM680 1207l14 104q46 -4 73 15.5t36.5 55t4.5 80.5h-128v257h247v-267q0 -131 -62 -198t-185 -47
z" />
    <glyph glyph-name="Tbar" unicode="&#x166;" horiz-adv-x="1213" 
d="M137 600v240h940v-240h-940zM486 0v1214h-466v226h1173v-226h-466v-1214h-241z" />
    <glyph glyph-name="tbar" unicode="&#x167;" horiz-adv-x="906" 
d="M20 463v189h786v-189h-786zM773 0q-107 -20 -209.5 -17.5t-183.5 38t-123 112.5q-37 70 -39 143t-2 165v939h240v-925q0 -65 1.5 -114t20.5 -80q36 -60 115 -67t180 8v-202zM20 891v189h753v-189h-753z" />
    <glyph glyph-name="Utilde" unicode="&#x168;" horiz-adv-x="1440" 
d="M720 -30q-172 0 -302.5 70t-204 197t-73.5 298v903l244 2v-899q0 -81 27.5 -145t74.5 -108.5t108 -67.5t126 -23q67 0 127.5 23.5t107.5 68t74 108.5t27 144v899h244v-905q0 -171 -73.5 -298t-204 -197t-302.5 -70zM903 1600q-47 0 -90.5 21t-83.5 48.5t-74.5 48.5
t-63.5 21q-32 0 -43.5 -32.5t1.5 -79.5h-152q-29 120 13.5 203.5t159.5 83.5q47 0 90.5 -21t83 -48.5t74.5 -48.5t64 -21q31 0 43.5 32.5t-1.5 80.5h152q30 -119 -13 -203.5t-160 -84.5z" />
    <glyph glyph-name="utilde" unicode="&#x169;" 
d="M545 -31q-120 0 -198 40t-124 102t-68 132t-28.5 132.5t-6.5 101.5v603h244v-520q0 -50 7 -112.5t32.5 -120t76 -94.5t136.5 -37q46 0 91 15t81.5 51.5t58.5 100.5t22 162l143 -61q0 -138 -53.5 -250t-157.5 -178.5t-256 -66.5zM898 0v335h-29v745h242v-1080h-213z
M803 1240q-47 0 -90.5 21t-83.5 48.5t-74.5 48.5t-63.5 21q-32 0 -43.5 -32.5t1.5 -79.5h-152q-29 120 13.5 203.5t159.5 83.5q47 0 90.5 -21t83 -48.5t74.5 -48.5t64 -21q31 0 43.5 32.5t-1.5 80.5h152q30 -119 -13 -203.5t-160 -84.5z" />
    <glyph glyph-name="Umacron" unicode="&#x16a;" horiz-adv-x="1440" 
d="M453 1680v187h534v-187h-534zM720 -30q-172 0 -302.5 70t-204 197t-73.5 298v903l244 2v-899q0 -81 27.5 -145t74.5 -108.5t108 -67.5t126 -23q67 0 127.5 23.5t107.5 68t74 108.5t27 144v899h244v-905q0 -171 -73.5 -298t-204 -197t-302.5 -70z" />
    <glyph glyph-name="umacron" unicode="&#x16b;" 
d="M349 1320v187h533v-187h-533zM545 -31q-120 0 -198 40t-124 102t-68 132t-28.5 132.5t-6.5 101.5v603h244v-520q0 -50 7 -112.5t32.5 -120t76 -94.5t136.5 -37q46 0 91 15t81.5 51.5t58.5 100.5t22 162l143 -61q0 -138 -53.5 -250t-157.5 -178.5t-256 -66.5zM898 0v335
h-29v745h242v-1080h-213z" />
    <glyph glyph-name="Ubreve" unicode="&#x16c;" horiz-adv-x="1440" 
d="M720 1562q-84 0 -152.5 41t-109.5 109.5t-41 152.5h188q0 -48 33.5 -81.5t81.5 -33.5t81.5 33.5t33.5 81.5h188q0 -84 -41 -152.5t-109.5 -109.5t-152.5 -41zM720 -30q-172 0 -302.5 70t-204 197t-73.5 298v903l244 2v-899q0 -81 27.5 -145t74.5 -108.5t108 -67.5
t126 -23q67 0 127.5 23.5t107.5 68t74 108.5t27 144v899h244v-905q0 -171 -73.5 -298t-204 -197t-302.5 -70z" />
    <glyph glyph-name="ubreve" unicode="&#x16d;" 
d="M615 1202q-83 0 -152 41t-109.5 109.5t-40.5 152.5h187q0 -48 34 -81.5t81 -33.5q48 0 81.5 33.5t33.5 81.5h188q0 -84 -40.5 -152.5t-109.5 -109.5t-153 -41zM545 -31q-120 0 -198 40t-124 102t-68 132t-28.5 132.5t-6.5 101.5v603h244v-520q0 -50 7 -112.5t32.5 -120
t76 -94.5t136.5 -37q46 0 91 15t81.5 51.5t58.5 100.5t22 162l143 -61q0 -138 -53.5 -250t-157.5 -178.5t-256 -66.5zM898 0v335h-29v745h242v-1080h-213z" />
    <glyph glyph-name="Uring" unicode="&#x16e;" horiz-adv-x="1440" 
d="M727 1552q-71 0 -129.5 34.5t-93.5 93t-35 129.5t35 129.5t93.5 93t129.5 34.5t129 -34.5t93 -93t35 -129.5t-35 -129.5t-93 -93t-129 -34.5zM727 1699q46 0 78 32.5t32 77.5q0 46 -32 78t-78 32q-45 0 -77.5 -32t-32.5 -78q0 -45 32.5 -77.5t77.5 -32.5zM720 -30
q-172 0 -302.5 70t-204 197t-73.5 298v903l244 2v-899q0 -81 27.5 -145t74.5 -108.5t108 -67.5t126 -23q67 0 127.5 23.5t107.5 68t74 108.5t27 144v899h244v-905q0 -171 -73.5 -298t-204 -197t-302.5 -70z" />
    <glyph glyph-name="uring" unicode="&#x16f;" 
d="M616 1192q-71 0 -129.5 34.5t-93.5 93t-35 129.5t35 129.5t93.5 93t129.5 34.5t129 -34.5t93 -93t35 -129.5t-35 -129.5t-93 -93t-129 -34.5zM616 1339q46 0 78 32.5t32 77.5q0 46 -32 78t-78 32q-45 0 -77.5 -32t-32.5 -78q0 -45 32.5 -77.5t77.5 -32.5zM545 -31
q-120 0 -198 40t-124 102t-68 132t-28.5 132.5t-6.5 101.5v603h244v-520q0 -50 7 -112.5t32.5 -120t76 -94.5t136.5 -37q46 0 91 15t81.5 51.5t58.5 100.5t22 162l143 -61q0 -138 -53.5 -250t-157.5 -178.5t-256 -66.5zM898 0v335h-29v745h242v-1080h-213z" />
    <glyph glyph-name="Uhungarumlaut" unicode="&#x170;" horiz-adv-x="1440" 
d="M995 1595h-183l154 370h183zM583 1595h-182l154 370h183zM720 -30q-172 0 -302.5 70t-204 197t-73.5 298v903l244 2v-899q0 -81 27.5 -145t74.5 -108.5t108 -67.5t126 -23q67 0 127.5 23.5t107.5 68t74 108.5t27 144v899h244v-905q0 -171 -73.5 -298t-204 -197
t-302.5 -70z" />
    <glyph glyph-name="uhungarumlaut" unicode="&#x171;" 
d="M900 1235h-183l154 370h183zM488 1235h-183l155 370h183zM545 -31q-120 0 -198 40t-124 102t-68 132t-28.5 132.5t-6.5 101.5v603h244v-520q0 -50 7 -112.5t32.5 -120t76 -94.5t136.5 -37q46 0 91 15t81.5 51.5t58.5 100.5t22 162l143 -61q0 -138 -53.5 -250
t-157.5 -178.5t-256 -66.5zM898 0v335h-29v745h242v-1080h-213z" />
    <glyph glyph-name="Uogonek" unicode="&#x172;" horiz-adv-x="1440" 
d="M720 -30q-172 0 -302.5 70t-204 197t-73.5 298v903l244 2v-899q0 -81 27.5 -145t74.5 -108.5t108 -67.5t126 -23q67 0 127.5 23.5t107.5 68t74 108.5t27 144v899h244v-905q0 -171 -73.5 -298t-204 -197t-302.5 -70zM864 -416q-63 0 -111.5 31t-76 80.5t-27.5 106.5
q0 72 40.5 144.5t109.5 134.5t155 103l105 -121q-61 -33 -111.5 -76.5t-80.5 -87.5t-30 -78q0 -25 17 -42t41 -17q17 0 36.5 9t37.5 26l87 -113q-36 -48 -87 -74t-105 -26z" />
    <glyph glyph-name="uogonek" unicode="&#x173;" 
d="M916 -479q-63 0 -111.5 31t-76 80.5t-27.5 106.5q0 72 40.5 144.5t109.5 134.5t155 103l105 -121q-61 -33 -111.5 -76.5t-80.5 -87.5t-30 -78q0 -25 17 -42t41 -17q17 0 36.5 9t37.5 26l87 -113q-36 -48 -87 -74t-105 -26zM545 -31q-120 0 -198 40t-124 102t-68 132
t-28.5 132.5t-6.5 101.5v603h244v-520q0 -50 7 -112.5t32.5 -120t76 -94.5t136.5 -37q46 0 91 15t81.5 51.5t58.5 100.5t22 162l143 -61q0 -138 -53.5 -250t-157.5 -178.5t-256 -66.5zM898 0v335h-29v745h242v-1080h-213z" />
    <glyph glyph-name="Wcircumflex" unicode="&#x174;" horiz-adv-x="1951" 
d="M599 1595l273 315h202l274 -315h-225l-150 178l-149 -178h-225zM444 0l-421 1440h253l287 -1040l286 1038l253 2l287 -1040l286 1040h253l-420 -1440h-238l-295 1024l-293 -1024h-238z" />
    <glyph glyph-name="wcircumflex" unicode="&#x175;" horiz-adv-x="1605" 
d="M425 1235l273 315h202l273 -315h-225l-149 178l-149 -178h-225zM370 0l-330 1082l236 -2l211 -693l214 693h203l213 -693l212 693h236l-330 -1080h-188l-245 743l-244 -743h-188z" />
    <glyph glyph-name="Ycircumflex" unicode="&#x176;" horiz-adv-x="1223" 
d="M234 1595l273 315h202l274 -315h-225l-150 178l-149 -178h-225zM490 0v590l-490 850h281l331 -574l330 574h281l-489 -850v-590h-244z" />
    <glyph glyph-name="ycircumflex" unicode="&#x177;" horiz-adv-x="1119" 
d="M198 1235l273 315h202l273 -315h-225l-149 178l-149 -178h-225zM282 -480l208 571l4 -168l-471 1157h251l334 -856h-64l325 856h241l-602 -1560h-226z" />
    <glyph glyph-name="Ydieresis" unicode="&#x178;" horiz-adv-x="1223" 
d="M708 1607v220h220v-220h-220zM295 1607v220h220v-220h-220zM490 0v590l-490 850h281l331 -574l330 574h281l-489 -850v-590h-244z" />
    <glyph glyph-name="Zacute" unicode="&#x179;" horiz-adv-x="1327" 
d="M763 1595h-183l154 370h183zM100 0v33l710 1181h-660v226h1077v-34l-706 -1179h689v-227h-1110z" />
    <glyph glyph-name="zacute" unicode="&#x17a;" horiz-adv-x="1067" 
d="M641 1235h-183l154 370h183zM40 0v33l572 836h-514v211h889v-34l-570 -835h546v-211h-923z" />
    <glyph glyph-name="Zdotaccent" unicode="&#x17b;" horiz-adv-x="1327" 
d="M574 1653v247h247v-247h-247zM100 0v33l710 1181h-660v226h1077v-34l-706 -1179h689v-227h-1110z" />
    <glyph glyph-name="zdotaccent" unicode="&#x17c;" horiz-adv-x="1067" 
d="M432 1293v247h247v-247h-247zM40 0v33l572 836h-514v211h889v-34l-570 -835h546v-211h-923z" />
    <glyph glyph-name="Zcaron" unicode="&#x17d;" horiz-adv-x="1327" 
d="M303 1910h225l149 -178l149 178h225l-273 -315h-202zM100 0v33l710 1181h-660v226h1077v-34l-706 -1179h689v-227h-1110z" />
    <glyph glyph-name="zcaron" unicode="&#x17e;" horiz-adv-x="1067" 
d="M176 1550h225l149 -178l150 178h225l-274 -315h-202zM40 0v33l572 836h-514v211h889v-34l-570 -835h546v-211h-923z" />
    <glyph glyph-name="florin" unicode="&#x192;" horiz-adv-x="1418" 
d="M346 -30q-49 0 -98 9t-93 23t-78 29l101 203q15 -8 40 -16.5t53.5 -14.5t54.5 -6q44 0 77 19t56.5 52.5t38 76.5t21.5 89l96 593q7 48 24 106.5t49 117.5t81.5 109t122.5 80t172 30q53 0 103.5 -8.5t94.5 -23t79 -31.5l-110 -199q3 0 -17 8.5t-53 17.5t-73 9
q-34 0 -68.5 -9t-64.5 -28.5t-51 -51t-29 -76.5l-112 -678q-17 -104 -53.5 -184.5t-90 -135t-122.5 -82.5t-151 -28zM262 626v189h936v-189h-936z" />
    <glyph glyph-name="Ohorn" unicode="&#x1a0;" horiz-adv-x="1499" 
d="M1132 1618l182 1q15 -109 -9.5 -181t-91.5 -106q-62 -30 -143.5 -25.5t-140.5 39.5v105q46 -12 78 -15t60 10q51 24 58.5 71.5t6.5 100.5zM749 -30q-216 0 -370 94.5t-236.5 263.5t-82.5 392t82.5 392t236.5 263.5t370 94.5t370.5 -94.5t237 -263.5t82.5 -392t-82.5 -392
t-237 -263.5t-370.5 -94.5zM749 197q145 -1 241.5 64t145 183t48.5 276t-48.5 274.5t-145 181.5t-241.5 67q-145 1 -241 -64t-144.5 -183t-48.5 -276t48 -274.5t144.5 -181.5t241.5 -67z" />
    <glyph glyph-name="ohorn" unicode="&#x1a1;" horiz-adv-x="1236" 
d="M969 1259l182 1q14 -109 -10.5 -181t-90.5 -105q-62 -31 -143.5 -26t-140.5 40v104q46 -11 78 -14.5t60 9.5q51 24 58.5 72t6.5 100zM617 -30q-162 0 -283 73t-187.5 201.5t-66.5 295.5q0 170 68 298t189 200t280 72q163 0 284 -73t188 -201.5t67 -295.5
q0 -168 -67.5 -296.5t-188.5 -201t-283 -72.5zM617 196q144 0 214 96t70 248q0 157 -71 250.5t-213 93.5q-97 0 -159.5 -43.5t-92.5 -121t-30 -179.5q0 -157 71.5 -250.5t210.5 -93.5z" />
    <glyph glyph-name="Uhorn" unicode="&#x1af;" horiz-adv-x="1440" 
d="M1360 1619l182 1q15 -109 -11 -177.5t-89 -104.5q-60 -35 -135.5 -36t-138.5 6v132q22 0 42 0.5t40 4.5q76 13 93.5 64.5t16.5 109.5zM720 -30q-172 0 -302.5 70t-204 197t-73.5 298v903l244 2v-899q0 -81 27.5 -145t74.5 -108.5t108 -67.5t126 -23q67 0 127.5 23.5
t107.5 68t74 108.5t27 144v899h244v-905q0 -171 -73.5 -298t-204 -197t-302.5 -70z" />
    <glyph glyph-name="uhorn" unicode="&#x1b0;" 
d="M1121 1259l182 1q15 -109 -11 -177.5t-89 -104.5q-60 -35 -135.5 -36t-138.5 6v132q22 0 42 0.5t40 4.5q76 13 93.5 64.5t16.5 109.5zM545 -31q-120 0 -198 40t-124 102t-68 132t-28.5 132.5t-6.5 101.5v603h244v-520q0 -50 7 -112.5t32.5 -120t76 -94.5t136.5 -37
q46 0 91 15t81.5 51.5t58.5 100.5t22 162l143 -61q0 -138 -53.5 -250t-157.5 -178.5t-256 -66.5zM898 0v335h-29v745h242v-1080h-213z" />
    <glyph glyph-name="uni0218" unicode="&#x218;" horiz-adv-x="1315" 
d="M585 -610v105q15 0 46 6.5t57 29t26 69.5h-129v233h234v-233q0 -95 -66.5 -152.5t-167.5 -57.5zM673 -30q-158 0 -284.5 55t-208 157.5t-103.5 243.5l250 38q32 -128 131.5 -198t229.5 -70q77 0 145 24t110.5 70t42.5 113q0 30 -10 55.5t-29.5 45.5t-50 36.5t-70.5 28.5
l-372 110q-48 14 -103.5 37.5t-105 65t-81 106t-31.5 159.5q0 139 70.5 233.5t190 141.5t265.5 46q148 -1 264 -50.5t194 -143.5t110 -227l-259 -45q-16 76 -61.5 129.5t-111 81.5t-139.5 30q-72 1 -133.5 -21.5t-99 -64.5t-37.5 -98q0 -53 32 -86.5t79.5 -53t96.5 -32.5
l258 -72q53 -14 119 -38t127 -67t100.5 -113t39.5 -178q0 -112 -46.5 -196.5t-125.5 -140.5t-180.5 -84t-212.5 -28z" />
    <glyph glyph-name="uni0219" unicode="&#x219;" horiz-adv-x="1083" 
d="M438 -610v105q15 0 46 6.5t57 29t26 69.5h-129v233h234v-233q0 -95 -66.5 -152.5t-167.5 -57.5zM557 -30q-200 0 -325 90t-152 253l246 38q19 -80 84 -126t164 -46q87 0 134.5 34.5t47.5 94.5q0 37 -17.5 59.5t-76.5 43.5t-181 53q-136 36 -216 77.5t-115 98.5t-35 138
q0 101 53 176t148 115.5t224 40.5q126 0 223.5 -39t157.5 -111t74 -169l-246 -44q-9 69 -62.5 109t-142.5 45q-85 5 -137 -25.5t-52 -85.5q0 -31 21 -53t84.5 -44t189.5 -54q129 -33 206.5 -75.5t112 -101.5t34.5 -143q0 -163 -118.5 -256t-327.5 -93z" />
    <glyph glyph-name="uni021A" unicode="&#x21a;" horiz-adv-x="1213" 
d="M490 -610v105q15 0 46 6.5t57 29t26 69.5h-129v233h233v-233q0 -95 -66 -152.5t-167 -57.5zM486 0v1214h-466v226h1173v-226h-466v-1214h-241z" />
    <glyph glyph-name="uni021B" unicode="&#x21b;" horiz-adv-x="866" 
d="M363 -610v105q15 0 46 6.5t57 29t25 69.5h-128v233h233v-233q0 -95 -66 -152.5t-167 -57.5zM773 0q-107 -20 -209.5 -17.5t-183.5 38t-123 112.5q-37 70 -39 143t-2 165v939h240v-925q0 -65 1.5 -114t20.5 -80q36 -60 115 -67t180 8v-202zM20 891v189h753v-189h-753z" />
    <glyph glyph-name="uni0259" unicode="&#x259;" horiz-adv-x="1204" 
d="M574 1110q163 0 287 -71t193.5 -197t69.5 -290q0 -177 -68 -307.5t-189 -202.5t-280 -72q-168 0 -285 78.5t-174 221.5t-44 337h239v-88q1 -176 62.5 -257t191.5 -81q149 0 220.5 91.5t71.5 267.5q0 165 -71.5 254.5t-210.5 89.5q-88 0 -153 -39.5t-100 -114.5l-238 72
q63 147 192 227.5t286 80.5zM945 607v-182h-743v182h743z" />
    <glyph glyph-name="circumflex" unicode="&#x2c6;" horiz-adv-x="1162" 
d="M203 1595l274 315h202l273 -315h-225l-149 178l-150 -178h-225z" />
    <glyph glyph-name="caron" unicode="&#x2c7;" horiz-adv-x="1158" 
d="M203 1910h225l150 -178l149 178h225l-273 -315h-202z" />
    <glyph glyph-name="breve" unicode="&#x2d8;" horiz-adv-x="1086" 
d="M543 1562q-83 0 -152 41t-110 109.5t-41 152.5h188q0 -48 33.5 -81.5t81.5 -33.5t81.5 33.5t33.5 81.5h188q0 -84 -41 -152.5t-110 -109.5t-152 -41z" />
    <glyph glyph-name="dotaccent" unicode="&#x2d9;" horiz-adv-x="727" 
d="M240 1653v247h247v-247h-247z" />
    <glyph glyph-name="ring" unicode="&#x2da;" horiz-adv-x="1096" 
d="M548 1552q-71 0 -129.5 34.5t-93 93t-34.5 129.5t34.5 129.5t93 93t129.5 34.5t129.5 -34.5t93 -93t34.5 -129.5t-34.5 -129.5t-93 -93t-129.5 -34.5zM548 1699q46 0 78 32.5t32 77.5q0 46 -32 78t-78 32q-45 0 -77.5 -32t-32.5 -78q0 -45 32.5 -77.5t77.5 -32.5z" />
    <glyph glyph-name="ogonek" unicode="&#x2db;" horiz-adv-x="887" 
d="M453 -479q-63 0 -111.5 31t-76 80.5t-27.5 106.5q0 72 40.5 144.5t109.5 134.5t155 103l105 -121q-61 -33 -111.5 -76.5t-80.5 -87.5t-30 -78q0 -25 17 -42t41 -17q17 0 36.5 9t37.5 26l87 -113q-36 -48 -87 -74t-105 -26z" />
    <glyph glyph-name="tilde" unicode="&#x2dc;" horiz-adv-x="1155" 
d="M744 1600q-47 0 -90.5 21t-83.5 48.5t-74.5 48.5t-63.5 21q-32 0 -43.5 -32.5t1.5 -79.5h-152q-29 120 13.5 203.5t159.5 83.5q47 0 90.5 -21t83 -48.5t74.5 -48.5t64 -21q31 0 43.5 32.5t-1.5 80.5h152q30 -119 -13 -203.5t-160 -84.5z" />
    <glyph glyph-name="hungarumlaut" unicode="&#x2dd;" horiz-adv-x="1162" 
d="M798 1595h-183l155 370h183zM387 1595h-183l154 370h183z" />
    <glyph glyph-name="uni0374" unicode="&#x374;" horiz-adv-x="617" 
d="M303 1070h-183l154 370h183z" />
    <glyph glyph-name="uni0375" unicode="&#x375;" horiz-adv-x="617" 
d="M303 -497h-183l154 370h183z" />
    <glyph glyph-name="uni037E" unicode="&#x37e;" horiz-adv-x="687" 
d="M220 -255l14 104q46 -4 73 15.5t36.5 55t4.5 80.5h-128v257h247v-267q0 -131 -62 -198t-185 -47zM220 833v247h247v-247h-247z" />
    <glyph glyph-name="tonos" unicode="&#x384;" horiz-adv-x="1200" 
d="M603 1070h-183l154 370h183z" />
    <glyph glyph-name="dieresistonos" unicode="&#x385;" horiz-adv-x="1200" 
d="M820 1245v220h195v-220h-195zM185 1245v220h195v-220h-195zM644 1235h-183l154 370h183z" />
    <glyph glyph-name="Alphatonos" unicode="&#x386;" horiz-adv-x="1370" 
d="M68 0l454 1440h353l454 -1440h-248l-412 1292h54l-407 -1292h-248zM321 312v225h756v-225h-756zM239 1070h-183l154 370h183z" />
    <glyph glyph-name="anoteleia" unicode="&#x387;" horiz-adv-x="1200" 
d="M270 483q-63 0 -106.5 42t-43.5 105t43.5 105t106.5 42q58 0 100.5 -42t42.5 -105t-42.5 -105t-100.5 -42z" />
    <glyph glyph-name="Epsilontonos" unicode="&#x388;" horiz-adv-x="1500" 
d="M470 0v1440h930v-226h-689v-355h569v-226h-569v-407h689v-226h-930zM216 1070h-183l154 370h183z" />
    <glyph glyph-name="Etatonos" unicode="&#x389;" horiz-adv-x="1750" 
d="M447 0v1440h241v-606h682v606h240v-1440h-240v608h-682v-608h-241zM198 1070h-183l154 370h183z" />
    <glyph glyph-name="Iotatonos" unicode="&#x38a;" horiz-adv-x="825" 
d="M445 0v1440h241v-1440h-241zM198 1070h-183l154 370h183z" />
    <glyph glyph-name="Omicrontonos" unicode="&#x38c;" horiz-adv-x="1718" 
d="M969 -30q-216 0 -370 94.5t-236.5 263.5t-82.5 392t82.5 392t236.5 263.5t370 94.5t370.5 -94.5t237 -263.5t82.5 -392t-82.5 -392t-237 -263.5t-370.5 -94.5zM969 197q145 -1 241.5 64t145 183t48.5 276t-48.5 274.5t-145 181.5t-241.5 67q-145 1 -241 -64t-144.5 -183
t-48.5 -276t48 -274.5t144.5 -181.5t241.5 -67zM206 1070h-183l154 370h183z" />
    <glyph glyph-name="Upsilontonos" unicode="&#x38e;" horiz-adv-x="1668" 
d="M935 0v590l-490 850h281l331 -574l330 574h281l-489 -850v-590h-244zM223 1070h-183l154 370h183z" />
    <glyph glyph-name="Omegatonos" unicode="&#x38f;" horiz-adv-x="1742" 
d="M314 0v226h207q-104 93 -164 231t-60 305q0 149 49 278t139.5 225.5t217.5 150.5t283 54q157 0 283.5 -54t217.5 -150.5t140 -225.5t49 -278q0 -167 -59.5 -305t-164.5 -231h207v-226h-502v226q64 32 124.5 101t99.5 169.5t40 228.5q0 107 -29 201t-86 165t-137.5 111
t-182.5 40q-101 0 -181.5 -40t-137 -110.5t-86 -164t-29.5 -199.5q0 -100 24 -181.5t64 -145t87.5 -107.5t94.5 -68v-226h-508zM221 1070h-183l154 370h183z" />
    <glyph glyph-name="iotadieresistonos" unicode="&#x390;" horiz-adv-x="976" 
d="M588 -8q-59 10 -116 38t-101 98q-42 68 -43.5 139.5t-1.5 173.5v639h240v-625q0 -67 1.5 -114t20.5 -81q21 -33 53 -48t65 -18q40 -4 87.5 -1.5t89.5 9.5v-202q-40 -11 -95 -15t-108.5 -2t-91.5 9zM696 1245v220h195v-220h-195zM61 1245v220h195v-220h-195zM520 1235
h-183l154 370h183z" />
    <glyph glyph-name="Alpha" unicode="&#x391;" horiz-adv-x="1341" 
d="M40 0l454 1440h353l454 -1440h-248l-412 1292h54l-407 -1292h-248zM293 312v225h756v-225h-756z" />
    <glyph glyph-name="Beta" unicode="&#x392;" horiz-adv-x="1262" 
d="M140 0v1440h571q146 0 239.5 -58.5t139 -149.5t45.5 -188q0 -119 -56.5 -202t-153.5 -112v50q136 -31 206.5 -129t70.5 -223q0 -128 -49 -224t-145.5 -150t-238.5 -54h-629zM384 227h355q63 0 113 25.5t78.5 72t28.5 110.5q0 58 -25 104t-73 73.5t-115 27.5h-362v-413z
M384 865h324q52 0 93 20t65 59t24 96q0 75 -48 125t-134 50h-324v-350z" />
    <glyph glyph-name="Gamma" unicode="&#x393;" horiz-adv-x="1090" 
d="M140 0v1440h930v-226h-689v-1214h-241z" />
    <glyph glyph-name="uni0394" unicode="&#x394;" horiz-adv-x="1341" 
d="M210 0v226h925v-226h-925zM494 1440h353l454 -1440h-248l-385 1206l-380 -1206h-248z" />
    <glyph glyph-name="Epsilon" unicode="&#x395;" horiz-adv-x="1170" 
d="M140 0v1440h930v-226h-689v-355h569v-226h-569v-407h689v-226h-930z" />
    <glyph glyph-name="Zeta" unicode="&#x396;" horiz-adv-x="1327" 
d="M100 0v33l710 1181h-660v226h1077v-34l-706 -1179h689v-227h-1110z" />
    <glyph glyph-name="Eta" unicode="&#x397;" horiz-adv-x="1443" 
d="M140 0v1440h241v-606h682v606h240v-1440h-240v608h-682v-608h-241z" />
    <glyph glyph-name="Theta" unicode="&#x398;" horiz-adv-x="1499" 
d="M483 626v188h533v-188h-533zM749 -30q-216 0 -370 94.5t-236.5 263.5t-82.5 392t82.5 392t236.5 263.5t370 94.5t370.5 -94.5t237 -263.5t82.5 -392t-82.5 -392t-237 -263.5t-370.5 -94.5zM749 197q145 -1 241.5 64t145 183t48.5 276t-48.5 274.5t-145 181.5t-241.5 67
q-145 1 -241 -64t-144.5 -183t-48.5 -276t48 -274.5t144.5 -181.5t241.5 -67z" />
    <glyph glyph-name="Iota" unicode="&#x399;" horiz-adv-x="561" 
d="M160 0v1440h241v-1440h-241z" />
    <glyph glyph-name="Kappa" unicode="&#x39a;" horiz-adv-x="1294" 
d="M140 0v1440h241v-668l575 668h296l-619 -706l661 -734h-306l-607 672v-672h-241z" />
    <glyph glyph-name="Lambda" unicode="&#x39b;" horiz-adv-x="1281" 
d="M464 1440h353l454 -1440h-248l-385 1206l-380 -1206h-248z" />
    <glyph glyph-name="Mu" unicode="&#x39c;" horiz-adv-x="1710" 
d="M140 0v1440h217l498 -1020l498 1020h217v-1440h-225v923l-442 -923h-96l-441 923v-923h-226z" />
    <glyph glyph-name="Nu" unicode="&#x39d;" horiz-adv-x="1436" 
d="M140 0v1440h244l668 -1015v1015h244v-1440h-244l-668 1015v-1015h-244z" />
    <glyph glyph-name="Xi" unicode="&#x39e;" horiz-adv-x="1447" 
d="M140 1214v226h1167v-226h-1167zM140 0v226h1167v-226h-1167zM240 608v226h967v-226h-967z" />
    <glyph glyph-name="Omicron" unicode="&#x39f;" horiz-adv-x="1499" 
d="M749 -30q-216 0 -370 94.5t-236.5 263.5t-82.5 392t82.5 392t236.5 263.5t370 94.5t370.5 -94.5t237 -263.5t82.5 -392t-82.5 -392t-237 -263.5t-370.5 -94.5zM749 197q145 -1 241.5 64t145 183t48.5 276t-48.5 274.5t-145 181.5t-241.5 67q-145 1 -241 -64t-144.5 -183
t-48.5 -276t48 -274.5t144.5 -181.5t241.5 -67z" />
    <glyph glyph-name="Pi" unicode="&#x3a0;" horiz-adv-x="1447" 
d="M140 0v1440h1167v-1440h-241v1214h-685v-1214h-241z" />
    <glyph glyph-name="Rho" unicode="&#x3a1;" horiz-adv-x="1277" 
d="M140 0v1440h595q21 0 54 -1.5t61 -6.5q125 -19 206.5 -83t121 -161.5t39.5 -216.5q0 -118 -40 -215.5t-121.5 -161.5t-205.5 -83q-28 -4 -61.5 -6t-53.5 -2h-354v-503h-241zM381 728h344q20 0 45 2t46 8q60 15 94.5 53t49 86t14.5 94t-14.5 94.5t-49 86.5t-94.5 53
q-21 6 -46 7.5t-45 1.5h-344v-486z" />
    <glyph glyph-name="Sigma" unicode="&#x3a3;" horiz-adv-x="1270" 
d="M140 0v217l495 503l-495 503v217h990v-226h-686l469 -476v-36l-469 -476h680v-226h-984z" />
    <glyph glyph-name="Tau" unicode="&#x3a4;" horiz-adv-x="1213" 
d="M486 0v1214h-466v226h1173v-226h-466v-1214h-241z" />
    <glyph glyph-name="Upsilon" unicode="&#x3a5;" horiz-adv-x="1223" 
d="M490 0v590l-490 850h281l331 -574l330 574h281l-489 -850v-590h-244z" />
    <glyph glyph-name="Phi" unicode="&#x3a6;" horiz-adv-x="1477" 
d="M618 0v205q-111 -19 -211.5 9t-178.5 99.5t-123 184t-45 263.5t45 265t123 187t178.5 102t211.5 10v115h239v-115q111 19 212 -10t179 -102t123.5 -187t45.5 -265t-45.5 -263.5t-123.5 -184t-179 -99.5t-212 -9v-205h-239zM618 426v682q-87 14 -147.5 -11.5t-97 -77
t-52.5 -119.5t-16 -139t16 -137t52.5 -115.5t97 -72.5t147.5 -10zM857 426q88 -13 148 10.5t97 72.5t53.5 113t16.5 132t-16.5 136.5t-53.5 122t-97 81.5t-148 14v-682z" />
    <glyph glyph-name="Chi" unicode="&#x3a7;" horiz-adv-x="1311" 
d="M20 0l488 728l-474 712h295l328 -507l325 507h297l-474 -712l486 -728h-295l-339 523l-340 -523h-297z" />
    <glyph glyph-name="Psi" unicode="&#x3a8;" horiz-adv-x="1507" 
d="M633 0v314q-114 5 -211.5 40.5t-166.5 108.5t-97 192q-10 41 -14 84t-4 71v630h226v-591q0 -19 1.5 -52.5t11.5 -73.5q27 -104 94.5 -144t159.5 -42v903h241v-903q95 3 165 49t92 151q8 35 9 66.5t1 45.5v591h226v-630q0 -35 -3.5 -73t-14.5 -79q-30 -119 -99 -193
t-166 -110t-210 -41v-314h-241z" />
    <glyph glyph-name="uni03A9" unicode="&#x3a9;" horiz-adv-x="1499" 
d="M77 0v226h207q-104 93 -164 231t-60 305q0 149 49 278t139.5 225.5t217.5 150.5t283 54q157 0 283.5 -54t217.5 -150.5t140 -225.5t49 -278q0 -167 -59.5 -305t-164.5 -231h207v-226h-502v226q64 32 124.5 101t99.5 169.5t40 228.5q0 107 -29 201t-86 165t-137.5 111
t-182.5 40q-101 0 -181.5 -40t-137 -110.5t-86 -164t-29.5 -199.5q0 -100 24 -181.5t64 -145t87.5 -107.5t94.5 -68v-226h-508z" />
    <glyph glyph-name="Iotadieresis" unicode="&#x3aa;" horiz-adv-x="561" 
d="M377 1607v220h220v-220h-220zM-36 1607v220h220v-220h-220zM160 0v1440h241v-1440h-241z" />
    <glyph glyph-name="Upsilondieresis" unicode="&#x3ab;" horiz-adv-x="1223" 
d="M708 1607v220h220v-220h-220zM295 1607v220h220v-220h-220zM490 0v590l-490 850h281l331 -574l330 574h281l-489 -850v-590h-244z" />
    <glyph glyph-name="alphatonos" unicode="&#x3ac;" horiz-adv-x="1257" 
d="M712 1235h-183l154 370h183zM578 -30q-153 0 -265 75t-172.5 204t-60.5 291q0 164 62 292.5t175 203t268 74.5q121 0 211.5 -50t144.5 -138l-37 -51v209h213v-1080h-213v211l37 -50q-54 -89 -148.5 -140t-214.5 -51zM615 186q94 0 152.5 44.5t86 124.5t27.5 185
q0 106 -27.5 185.5t-85.5 124t-150 44.5q-90 0 -153 -43.5t-96.5 -123t-33.5 -188.5q0 -98 29 -178t91 -127.5t160 -47.5z" />
    <glyph glyph-name="epsilontonos" unicode="&#x3ad;" horiz-adv-x="1041" 
d="M576 1235h-183l154 370h183zM517 -30q-119 0 -218 40t-159 118t-60 191q0 62 20 117t59 96t94 64l-4 -78q-70 60 -102.5 127t-32.5 143q0 106 55.5 178t146 108t194.5 36q125 0 237 -46.5t200 -126.5l-136 -164q-59 47 -135 80t-154 33q-65 0 -112.5 -27.5t-47.5 -92.5
q0 -72 61 -93t152 -21h80v-191h-80q-65 0 -122 -5t-92 -29.5t-35 -83.5q0 -67 52 -107t143 -40q87 0 158 37.5t128 106.5l190 -127q-72 -113 -198.5 -178t-281.5 -65z" />
    <glyph glyph-name="etatonos" unicode="&#x3ae;" 
d="M728 1235h-183l154 370h183zM887 0v520q0 51 -7 113t-32.5 119.5t-76 94.5t-136.5 37q-46 0 -91 -15t-81.5 -51.5t-58.5 -100t-22 -162.5l-143 61q0 138 53.5 250t157.5 178.5t256 66.5q120 0 198 -40t124 -102t68 -132t28.5 -132.5t6.5 -101.5v-603h-244zM138 0v1080
h215v-335h29v-745h-244z" />
    <glyph glyph-name="iotatonos" unicode="&#x3af;" horiz-adv-x="811" 
d="M375 1235h-183l154 370h183zM423 -8q-59 10 -116 38t-101 98q-42 68 -43.5 139.5t-1.5 173.5v639h240v-625q0 -67 1.5 -114t20.5 -81q21 -33 53 -48t65 -18q40 -4 87.5 -1.5t89.5 9.5v-202q-40 -11 -95 -15t-108.5 -2t-91.5 9z" />
    <glyph glyph-name="upsilondieresistonos" unicode="&#x3b0;" horiz-adv-x="1233" 
d="M120 494v586h244v-520q0 -50 7 -112.5t32.5 -120t76 -94.5t136.5 -37q87 0 137.5 37t75.5 94.5t32.5 120t7.5 112.5v520h244v-586q0 -61 -8 -131.5t-33.5 -140t-79.5 -126.5t-145 -92t-231 -35q-139 0 -230 35t-145 92t-79.5 126.5t-33.5 140t-8 131.5zM836 1245v220h195
v-220h-195zM201 1245v220h195v-220h-195zM660 1235h-183l154 370h183z" />
    <glyph glyph-name="alpha" unicode="&#x3b1;" horiz-adv-x="1257" 
d="M578 -30q-153 0 -265 75t-172.5 204t-60.5 291q0 164 62 292.5t175 203t268 74.5q121 0 211.5 -50t144.5 -138l-37 -51v209h213v-1080h-213v211l37 -50q-54 -89 -148.5 -140t-214.5 -51zM615 186q94 0 152.5 44.5t86 124.5t27.5 185q0 106 -27.5 185.5t-85.5 124
t-150 44.5q-90 0 -153 -43.5t-96.5 -123t-33.5 -188.5q0 -98 29 -178t91 -127.5t160 -47.5z" />
    <glyph glyph-name="beta" unicode="&#x3b2;" horiz-adv-x="1208" 
d="M138 -480v1560q0 28 4.5 57t13.5 62q29 93 93 153.5t149.5 89t177.5 28.5q132 0 234.5 -52.5t161.5 -145t59 -211.5q0 -80 -29.5 -149.5t-91.5 -115.5q52 -19 96 -54t75.5 -83t49 -109t17.5 -132q0 -141 -64.5 -241t-181 -153.5t-273.5 -53.5q-72 0 -134.5 13.5
t-114.5 39.5v-503h-242zM639 194q79 0 139.5 29t94 81.5t33.5 123.5q0 118 -88.5 173.5t-232.5 56.5v211q63 5 108.5 28t70 63.5t24.5 95.5q0 92 -61 140t-145 48q-49 0 -99 -21t-76 -78q-18 -39 -21.5 -82.5t-3.5 -67.5v-552q0 -20 2 -56t12 -65q24 -66 96 -97t147 -31z
" />
    <glyph glyph-name="gamma" unicode="&#x3b3;" horiz-adv-x="1106" 
d="M432 -360v360l-392 1080h242l271 -783l272 783h241l-392 -1080v-360h-242z" />
    <glyph glyph-name="delta" unicode="&#x3b4;" horiz-adv-x="1236" 
d="M612 -30q-159 0 -279 62.5t-186.5 175.5t-66.5 264q0 146 64 259t184.5 167.5t288.5 23.5v88q163 0 284 -66.5t188 -183.5t67 -269q0 -153 -67.5 -270.5t-189.5 -184t-287 -66.5zM619 196q131 0 196.5 80.5t65.5 215.5q0 136 -67 215t-195 79q-130 0 -196 -79.5
t-66 -215.5q0 -140 67.5 -217.5t194.5 -77.5zM766 808q-80 22 -171.5 48t-172.5 67t-132 106t-51 163q0 54 21 112.5t74 103t149 57.5q26 4 53 4.5t74 0.5h327v-196h-272q-33 0 -59 -1t-49 -7q-34 -10 -56 -30.5t-22 -55.5q0 -40 32.5 -68.5t86.5 -51t121 -45t135 -50.5z
" />
    <glyph glyph-name="epsilon" unicode="&#x3b5;" horiz-adv-x="1041" 
d="M517 -30q-119 0 -218 40t-159 118t-60 191q0 62 20 117t59 96t94 64l-4 -78q-70 60 -102.5 127t-32.5 143q0 106 55.5 178t146 108t194.5 36q125 0 237 -46.5t200 -126.5l-136 -164q-59 47 -135 80t-154 33q-65 0 -112.5 -27.5t-47.5 -92.5q0 -72 61 -93t152 -21h80v-191
h-80q-65 0 -122 -5t-92 -29.5t-35 -83.5q0 -67 52 -107t143 -40q87 0 158 37.5t128 106.5l190 -127q-72 -113 -198.5 -178t-281.5 -65z" />
    <glyph glyph-name="zeta" unicode="&#x3b6;" horiz-adv-x="1052" 
d="M821 -240q2 90 -21 140t-64 71t-94 25t-113 4q-103 0 -185.5 21t-141.5 68t-90.5 122.5t-31.5 184.5q0 86 24.5 166.5t87 171t174.5 205.5q52 52 101 98.5t99 92t107 96.5h-533v214h905v-177q-29 -27 -51 -48t-49 -47t-69.5 -65.5t-110 -101.5t-171.5 -158
q-96 -91 -153 -163.5t-81.5 -135.5t-24.5 -125q0 -89 41.5 -130t114 -52.5t165.5 -11.5q31 0 65.5 -2.5t68 -8.5t62.5 -16q70 -25 117.5 -83t64.5 -147.5t-2 -207.5h-211z" />
    <glyph glyph-name="eta" unicode="&#x3b7;" 
d="M887 0v520q0 51 -7 113t-32.5 119.5t-76 94.5t-136.5 37q-46 0 -91 -15t-81.5 -51.5t-58.5 -100t-22 -162.5l-143 61q0 138 53.5 250t157.5 178.5t256 66.5q120 0 198 -40t124 -102t68 -132t28.5 -132.5t6.5 -101.5v-603h-244zM138 0v1080h215v-335h29v-745h-244z" />
    <glyph glyph-name="theta" unicode="&#x3b8;" horiz-adv-x="1373" 
d="M280 626v188h826v-188h-826zM686 -30q-143 0 -255.5 53t-190.5 152t-119 237.5t-41 307.5q0 170 41 308t119 237t190.5 152t255.5 53t256 -53t191 -152t119 -237t41 -308q0 -171 -41 -309t-119 -237t-191 -151.5t-256 -52.5zM686 197q90 0 156 38.5t109 109t65 166
t22 209.5t-21.5 209.5t-64.5 165.5t-109.5 108.5t-156.5 38.5q-89 0 -155 -38.5t-109.5 -108.5t-65 -165.5t-21.5 -209.5t21.5 -209.5t64.5 -166t109.5 -109t155.5 -38.5z" />
    <glyph glyph-name="iota" unicode="&#x3b9;" horiz-adv-x="811" 
d="M423 -8q-59 10 -116 38t-101 98q-42 68 -43.5 139.5t-1.5 173.5v639h240v-625q0 -67 1.5 -114t20.5 -81q21 -33 53 -48t65 -18q40 -4 87.5 -1.5t89.5 9.5v-202q-40 -11 -95 -15t-108.5 -2t-91.5 9z" />
    <glyph glyph-name="kappa" unicode="&#x3ba;" horiz-adv-x="1076" 
d="M138 0l2 1080h244v-520l395 520h301l-419 -540l455 -540h-319l-413 520v-520h-246z" />
    <glyph glyph-name="lambda" unicode="&#x3bb;" horiz-adv-x="1146" 
d="M80 0l392 1080q-26 64 -54.5 103.5t-72 57.5t-112.5 18h-51v211h75q17 0 66.5 -2t94.5 -13q86 -20 140 -75.5t89.5 -134t66.5 -165.5l392 -1080h-242l-271 783l-272 -783h-241z" />
    <glyph glyph-name="uni03BC" unicode="&#x3bc;" horiz-adv-x="1269" 
d="M138 -480v1560h244v-520q0 -50 7.5 -112.5t32.5 -120t75.5 -94.5t137.5 -37q45 0 90 15t81.5 51.5t58.5 100.5t22 162v555h242v-1080h-213v122q-58 -72 -147 -112.5t-206 -40.5q-65 0 -118 15.5t-94 43.5v-508h-213z" />
    <glyph glyph-name="nu" unicode="&#x3bd;" horiz-adv-x="1106" 
d="M432 0l-392 1080h241l272 -783l271 783h242l-392 -1080h-242z" />
    <glyph glyph-name="xi" unicode="&#x3be;" horiz-adv-x="1145" 
d="M921 -240q9 114 -24 164.5t-102.5 63t-169.5 12.5q-190 0 -310.5 53.5t-177.5 150t-57 225.5q0 117 47.5 206.5t152.5 129.5q-64 56 -103 134.5t-39 178.5q0 105 42 180t112.5 121.5t158.5 68.5t181 22q163 0 286.5 -59.5t201.5 -152.5l-169 -172q-46 69 -125 113.5
t-194 44.5q-103 0 -171 -41.5t-68 -131.5q0 -93 73 -139t188 -51q18 -1 46.5 -1.5t55 -0.5h37.5v-228h-19.5t-41 -1t-100.5 -3q-92 -3 -158.5 -21.5t-102.5 -61t-36 -117.5q0 -86 48 -133.5t131.5 -67t191.5 -21.5q42 -1 81.5 -2.5t77 -7t71.5 -17.5q74 -25 127.5 -81.5
t74 -145.5t-6.5 -211h-210z" />
    <glyph glyph-name="omicron" unicode="&#x3bf;" horiz-adv-x="1236" 
d="M617 -30q-162 0 -283 73t-187.5 201.5t-66.5 295.5q0 170 68 298t189 200t280 72q163 0 284 -73t188 -201.5t67 -295.5q0 -168 -67.5 -296.5t-188.5 -201t-283 -72.5zM617 196q144 0 214 96t70 248q0 157 -71 250.5t-213 93.5q-97 0 -159.5 -43.5t-92.5 -121t-30 -179.5
q0 -157 71.5 -250.5t210.5 -93.5z" />
    <glyph glyph-name="pi" unicode="&#x3c0;" horiz-adv-x="1350" 
d="M247 0v866h-174v214h1204v-214h-174v-866h-240v866h-376v-866h-240z" />
    <glyph glyph-name="rho" unicode="&#x3c1;" horiz-adv-x="1271" 
d="M138 -480v944q0 54 2 106.5t11 101.5q21 130 88.5 228.5t176 154t252.5 55.5q167 0 284 -74t178 -202t61 -290q0 -165 -61.5 -295t-172.5 -204.5t-264 -74.5q-97 0 -178 32t-134 86v-568h-243zM662 186q96 0 160 45t95.5 125.5t31.5 185.5q0 106 -32 185.5t-95.5 123
t-159.5 43.5q-97 0 -160 -44t-93 -124t-30 -185q0 -108 31.5 -187.5t94.5 -123.5t157 -44z" />
    <glyph glyph-name="uni03C2" unicode="&#x3c2;" horiz-adv-x="1151" 
d="M855 -240q1 117 -37.5 165.5t-108.5 60t-164 14.5q-83 3 -154.5 26t-129 65.5t-98 104t-62 142.5t-21.5 181q0 181 65 313.5t184 205t282 72.5q185 0 312.5 -92t166.5 -253l-240 -65q-29 87 -92.5 135.5t-155.5 48.5q-90 0 -145 -45t-80 -124t-25 -180q-1 -63 11 -119
t42.5 -98.5t86.5 -66.5t145 -26q24 0 67 -1t91.5 -6.5t88.5 -19.5q74 -26 120.5 -86t62.5 -149.5t-2 -202.5h-210z" />
    <glyph glyph-name="sigma" unicode="&#x3c3;" horiz-adv-x="1273" 
d="M617 -30q-161 0 -282 74t-188 200t-67 282q0 135 49 246t139 187t213 105q52 13 122 14.5t161 1.5h452v-214h-276l56 65q69 -68 114.5 -173.5t45.5 -231.5q0 -157 -68 -283t-189 -199.5t-282 -73.5zM617 196q143 0 213.5 94.5t70.5 235.5q0 140 -71.5 234t-212.5 94
q-96 1 -158.5 -44t-93 -119.5t-30.5 -164.5q0 -147 72 -238.5t210 -91.5z" />
    <glyph glyph-name="tau" unicode="&#x3c4;" horiz-adv-x="1107" 
d="M674 -8q-60 10 -117 38t-101 98q-41 68 -43 139.5t-2 173.5v425h-361v214h963v-214h-361v-411q0 -67 1.5 -114t20.5 -81q20 -33 52 -48t66 -18q40 -4 87 -1.5t90 9.5v-202q-41 -11 -95.5 -15t-108 -2t-91.5 9z" />
    <glyph glyph-name="upsilon" unicode="&#x3c5;" horiz-adv-x="1233" 
d="M120 494v586h244v-520q0 -50 7 -112.5t32.5 -120t76 -94.5t136.5 -37q87 0 137.5 37t75.5 94.5t32.5 120t7.5 112.5v520h244v-586q0 -61 -8 -131.5t-33.5 -140t-79.5 -126.5t-145 -92t-231 -35q-139 0 -230 35t-145 92t-79.5 126.5t-33.5 140t-8 131.5z" />
    <glyph glyph-name="phi" unicode="&#x3c6;" horiz-adv-x="1513" 
d="M646 -450v431q-158 -25 -286.5 34t-204 192t-75.5 333q0 199 75.5 333t204 192.5t286.5 33.5v324h214v-324q158 25 286.5 -33.5t204 -192.5t75.5 -333q0 -200 -75.5 -333t-204 -192t-286.5 -34v-431h-214zM646 197v684q-81 14 -141.5 -4.5t-100 -64t-59.5 -115
t-20 -157.5q0 -89 20.5 -158t61.5 -115t101 -64.5t138 -5.5zM860 197q78 -13 138 5t101 63t61.5 114.5t20.5 160.5t-20 160t-59.5 114.5t-100 63t-141.5 3.5v-684z" />
    <glyph glyph-name="chi" unicode="&#x3c7;" horiz-adv-x="1108" 
d="M20 0l395 546l-387 534h284l243 -345l239 345h284l-387 -534l397 -546h-284l-249 357l-251 -357h-284z" />
    <glyph glyph-name="psi" unicode="&#x3c8;" horiz-adv-x="1467" 
d="M618 -450v397q-115 4 -214 39.5t-168.5 108.5t-97.5 192q-10 42 -14 85t-4 71v637h226v-598q0 -18 1.5 -52t11.5 -74q18 -71 56 -111t90.5 -57t112.5 -18v910h231v-910q62 1 116.5 21t92.5 63.5t53 114.5q8 36 9 67.5t1 45.5v598h226v-637q0 -35 -3.5 -73t-14.5 -79
q-29 -119 -99 -193.5t-168.5 -110.5t-212.5 -40v-397h-231z" />
    <glyph glyph-name="omega" unicode="&#x3c9;" horiz-adv-x="1596" 
d="M505 -30q-139 0 -234 73.5t-143 196t-48 270.5q0 191 78 349.5t224 250.5l164 -191q-111 -86 -161 -176.5t-50 -222.5q0 -92 23.5 -165.5t68 -115.5t110.5 -42q72 0 103.5 50t39 135t7.5 188v115h222v-115q0 -105 7.5 -190t39 -134t103.5 -49q67 0 112 43.5t67.5 117
t22.5 162.5q0 136 -51.5 226t-160.5 173l164 191q150 -93 226.5 -253t76.5 -349q0 -150 -49.5 -272t-144 -194t-231.5 -72q-101 0 -187.5 50.5t-124.5 177.5h37q-36 -127 -123 -177.5t-188 -50.5z" />
    <glyph glyph-name="iotadieresis" unicode="&#x3ca;" horiz-adv-x="805" 
d="M377 1247v220h220v-220h-220zM-36 1247v220h220v-220h-220zM423 -8q-59 10 -116 38t-101 98q-42 68 -43.5 139.5t-1.5 173.5v639h240v-625q0 -67 1.5 -114t20.5 -81q21 -33 53 -48t65 -18q40 -4 87.5 -1.5t89.5 9.5v-202q-40 -11 -95 -15t-108.5 -2t-91.5 9z" />
    <glyph glyph-name="upsilondieresis" unicode="&#x3cb;" horiz-adv-x="1233" 
d="M713 1247v220h220v-220h-220zM300 1247v220h220v-220h-220zM120 494v586h244v-520q0 -50 7 -112.5t32.5 -120t76 -94.5t136.5 -37q87 0 137.5 37t75.5 94.5t32.5 120t7.5 112.5v520h244v-586q0 -61 -8 -131.5t-33.5 -140t-79.5 -126.5t-145 -92t-231 -35q-139 0 -230 35
t-145 92t-79.5 126.5t-33.5 140t-8 131.5z" />
    <glyph glyph-name="omicrontonos" unicode="&#x3cc;" horiz-adv-x="1236" 
d="M712 1235h-183l154 370h183zM617 -30q-162 0 -283 73t-187.5 201.5t-66.5 295.5q0 170 68 298t189 200t280 72q163 0 284 -73t188 -201.5t67 -295.5q0 -168 -67.5 -296.5t-188.5 -201t-283 -72.5zM617 196q144 0 214 96t70 248q0 157 -71 250.5t-213 93.5
q-97 0 -159.5 -43.5t-92.5 -121t-30 -179.5q0 -157 71.5 -250.5t210.5 -93.5z" />
    <glyph glyph-name="upsilontonos" unicode="&#x3cd;" horiz-adv-x="1233" 
d="M679 1235h-183l154 370h183zM120 494v586h244v-520q0 -50 7 -112.5t32.5 -120t76 -94.5t136.5 -37q87 0 137.5 37t75.5 94.5t32.5 120t7.5 112.5v520h244v-586q0 -61 -8 -131.5t-33.5 -140t-79.5 -126.5t-145 -92t-231 -35q-139 0 -230 35t-145 92t-79.5 126.5t-33.5 140
t-8 131.5z" />
    <glyph glyph-name="omegatonos" unicode="&#x3ce;" horiz-adv-x="1596" 
d="M836 1235h-183l154 370h183zM505 -30q-139 0 -234 73.5t-143 196t-48 270.5q0 191 78 349.5t224 250.5l164 -191q-111 -86 -161 -176.5t-50 -222.5q0 -92 23.5 -165.5t68 -115.5t110.5 -42q72 0 103.5 50t39 135t7.5 188v115h222v-115q0 -105 7.5 -190t39 -134t103.5 -49
q67 0 112 43.5t67.5 117t22.5 162.5q0 136 -51.5 226t-160.5 173l164 191q150 -93 226.5 -253t76.5 -349q0 -150 -49.5 -272t-144 -194t-231.5 -72q-101 0 -187.5 50.5t-124.5 177.5h37q-36 -127 -123 -177.5t-188 -50.5z" />
    <glyph glyph-name="uni0400" unicode="&#x400;" horiz-adv-x="1170" 
d="M534 1595l-154 370h183l154 -370h-183zM140 0v1440h930v-226h-689v-355h569v-226h-569v-407h689v-226h-930z" />
    <glyph glyph-name="uni0401" unicode="&#x401;" horiz-adv-x="1170" 
d="M695 1607v220h220v-220h-220zM282 1607v220h220v-220h-220zM140 0v1440h930v-226h-689v-355h569v-226h-569v-407h689v-226h-930z" />
    <glyph glyph-name="uni0402" unicode="&#x402;" horiz-adv-x="1352" 
d="M157 0v1226h-157v214h690v-214h-320v-253q67 68 164.5 102.5t220.5 34.5q248 0 382.5 -139.5t134.5 -410.5q0 -171 -57 -297t-175 -194.5t-304 -68.5v244q109 0 173 42t91.5 113.5t27.5 160.5q0 117 -39 186.5t-108.5 100.5t-158.5 31q-125 0 -200.5 -49.5t-101.5 -133.5
q-12 -39 -16.5 -89t-4.5 -95v-511h-242z" />
    <glyph glyph-name="uni0403" unicode="&#x403;" horiz-adv-x="1090" 
d="M597 1595h-183l154 370h183zM140 0v1440h930v-226h-689v-1214h-241z" />
    <glyph glyph-name="uni0404" unicode="&#x404;" horiz-adv-x="1446" 
d="M741 -30q-212 0 -363.5 100t-231.5 270t-79 380q1 223 82 392t232 263.5t360 94.5q254 0 422.5 -129t222.5 -366l-242 -34q-37 138 -138.5 219t-249.5 82q-125 2 -215 -49.5t-144 -144t-70 -214.5h511v-226h-510q8 -70 30 -135.5t66 -122.5q56 -77 144.5 -114t187.5 -39
q142 -1 243.5 79t140.5 208l236 -59q-44 -151 -132 -252.5t-215.5 -152t-287.5 -50.5z" />
    <glyph glyph-name="uni0405" unicode="&#x405;" horiz-adv-x="1315" 
d="M673 -30q-158 0 -284.5 55t-208 157.5t-103.5 243.5l250 38q32 -128 131.5 -198t229.5 -70q77 0 145 24t110.5 70t42.5 113q0 30 -10 55.5t-29.5 45.5t-50 36.5t-70.5 28.5l-372 110q-48 14 -103.5 37.5t-105 65t-81 106t-31.5 159.5q0 139 70.5 233.5t190 141.5
t265.5 46q148 -1 264 -50.5t194 -143.5t110 -227l-259 -45q-16 76 -61.5 129.5t-111 81.5t-139.5 30q-72 1 -133.5 -21.5t-99 -64.5t-37.5 -98q0 -53 32 -86.5t79.5 -53t96.5 -32.5l258 -72q53 -14 119 -38t127 -67t100.5 -113t39.5 -178q0 -112 -46.5 -196.5t-125.5 -140.5
t-180.5 -84t-212.5 -28z" />
    <glyph glyph-name="uni0406" unicode="&#x406;" horiz-adv-x="561" 
d="M160 0v1440h241v-1440h-241z" />
    <glyph glyph-name="uni0407" unicode="&#x407;" horiz-adv-x="561" 
d="M377 1607v220h220v-220h-220zM-36 1607v220h220v-220h-220zM160 0v1440h241v-1440h-241z" />
    <glyph glyph-name="uni0408" unicode="&#x408;" horiz-adv-x="1001" 
d="M428 -30q-165 0 -274.5 86t-153.5 232l238 57q11 -61 64 -105t117 -44q42 0 89 22.5t70 72.5q14 32 16.5 76.5t2.5 103.5v969h244v-969q0 -67 -0.5 -117.5t-10 -95t-37.5 -91.5q-59 -102 -154 -149.5t-211 -47.5z" />
    <glyph glyph-name="uni0409" unicode="&#x409;" horiz-adv-x="2199" 
d="M1042 0v1440h241v-503h354q20 0 54 -1.5t62 -6.5q124 -19 205.5 -83t121 -161.5t39.5 -215.5q0 -119 -39.5 -216.5t-121 -161.5t-205.5 -83q-28 -4 -61.5 -6t-54.5 -2h-595zM1283 226h344q21 0 45.5 2t46.5 7q59 15 93.5 53t49 86.5t14.5 94.5t-14.5 94t-49 86t-93.5 53
q-22 6 -46.5 8t-45.5 2h-344v-486zM20 0v202q48 -3 81 7.5t55.5 41t39.5 87t33 142.5q23 123 38.5 256.5t26.5 263t17 243.5t10 197h964v-1440h-241v1214h-500q-5 -67 -11.5 -161.5t-17 -204.5t-26 -228t-37.5 -232q-20 -104 -48 -186.5t-74.5 -136t-121 -71.5t-188.5 6z
" />
    <glyph glyph-name="uni040A" unicode="&#x40a;" horiz-adv-x="2205" 
d="M140 0v1440h241v-504h781v-226h-781v-710h-241zM1048 0v1440h240v-503h355q20 0 53.5 -1.5t61.5 -6.5q124 -19 205.5 -83t121.5 -161.5t40 -215.5q0 -119 -39.5 -216.5t-121 -161.5t-206.5 -83q-28 -4 -61 -6t-54 -2h-595zM1288 226h345q20 0 44.5 2t46.5 7q60 15 94 53
t48.5 86.5t14.5 94.5t-14.5 94t-48.5 86t-94 53q-22 6 -46.5 8t-44.5 2h-345v-486z" />
    <glyph glyph-name="uni040B" unicode="&#x40b;" horiz-adv-x="1352" 
d="M0 1226v214h690v-214h-690zM382 1440v-640l-38 62q59 50 160 77t214 27q182 0 290.5 -71t156 -196t47.5 -289v-410h-244v336q0 74 -8.5 145.5t-37.5 129.5t-89.5 92.5t-165.5 34.5q-117 0 -198.5 -38.5t-116.5 -83.5l30 121v-737h-242v1440h242z" />
    <glyph glyph-name="uni040C" unicode="&#x40c;" horiz-adv-x="1294" 
d="M140 0v1440h241v-668l575 668h296l-619 -706l661 -734h-306l-607 672v-672h-241zM749 1595h-183l154 370h183z" />
    <glyph glyph-name="uni040D" unicode="&#x40d;" horiz-adv-x="1436" 
d="M140 0v1440h244v-1015l668 1015h244v-1440h-244v1015l-668 -1015h-244zM649 1595l-155 370h183l155 -370h-183z" />
    <glyph glyph-name="uni040E" unicode="&#x40e;" horiz-adv-x="1273" 
d="M658 1562q-84 0 -152.5 41t-109.5 109.5t-41 152.5h188q0 -48 34 -81.5t81 -33.5q48 0 81.5 33.5t33.5 81.5h188q0 -84 -41 -152.5t-109.5 -109.5t-152.5 -41zM330 0l190 388l-497 1052h272l351 -798l362 798h257l-678 -1440h-257z" />
    <glyph glyph-name="uni040F" unicode="&#x40f;" horiz-adv-x="1537" 
d="M648 -240v240h-508v1440h241v-1214h775v1214h241v-1440h-508v-240h-241z" />
    <glyph glyph-name="uni0410" unicode="&#x410;" horiz-adv-x="1341" 
d="M40 0l454 1440h353l454 -1440h-248l-412 1292h54l-407 -1292h-248zM293 312v225h756v-225h-756z" />
    <glyph glyph-name="uni0411" unicode="&#x411;" horiz-adv-x="1277" 
d="M140 0v1440h963v-226h-722v-310h354q20 0 53.5 -1.5t61.5 -4.5q121 -14 202.5 -77t123 -159t41.5 -210t-41 -210.5t-122.5 -159t-203.5 -76.5q-28 -3 -61 -4.5t-54 -1.5h-595zM381 226h344q20 0 45 2t46 6q90 19 124 84t34 134q0 70 -34 134.5t-124 83.5q-21 5 -46 6.5
t-45 1.5h-344v-452z" />
    <glyph glyph-name="uni0412" unicode="&#x412;" horiz-adv-x="1262" 
d="M140 0v1440h571q146 0 239.5 -58.5t139 -149.5t45.5 -188q0 -119 -56.5 -202t-153.5 -112v50q136 -31 206.5 -129t70.5 -223q0 -128 -49 -224t-145.5 -150t-238.5 -54h-629zM384 227h355q63 0 113 25.5t78.5 72t28.5 110.5q0 58 -25 104t-73 73.5t-115 27.5h-362v-413z
M384 865h324q52 0 93 20t65 59t24 96q0 75 -48 125t-134 50h-324v-350z" />
    <glyph glyph-name="uni0413" unicode="&#x413;" horiz-adv-x="1090" 
d="M140 0v1440h930v-226h-689v-1214h-241z" />
    <glyph glyph-name="uni0414" unicode="&#x414;" horiz-adv-x="1504" 
d="M63 -240v466q70 0 117 35t75.5 97t44.5 144.5t25 175.5q11 123 19 241.5t15.5 246t17.5 276.5l939 -2v-1214h108v-466h-240v240h-880v-240h-241zM438 226h637v988l-478 2q-7 -105 -11.5 -195.5t-11 -183.5t-17.5 -203q-10 -108 -21.5 -180t-33.5 -124.5t-64 -103.5z" />
    <glyph glyph-name="uni0415" unicode="&#x415;" horiz-adv-x="1170" 
d="M140 0v1440h930v-226h-689v-355h569v-226h-569v-407h689v-226h-930z" />
    <glyph glyph-name="uni0416" unicode="&#x416;" horiz-adv-x="1831" 
d="M20 0l542 734l-500 706h288l445 -651v651h241v-651l445 651h288l-500 -706l542 -734h-297l-478 655v-655h-241v655l-477 -655h-298z" />
    <glyph glyph-name="uni0417" unicode="&#x417;" horiz-adv-x="1299" 
d="M650 -30q-152 0 -265.5 44.5t-190 115t-117.5 148.5l206 140q24 -55 70 -105.5t121 -83t186 -32.5q107 0 175 32t100 84t32 113q0 76 -42 117.5t-110 58t-145 18.5q-70 2 -101 3t-41 1h-19v228h37.5t55 0.5t46.5 1.5q114 5 187.5 53t73.5 142q0 91 -68.5 143t-181.5 52
q-106 0 -186.5 -47t-121.5 -111l-169 172q73 89 198.5 150.5t285.5 61.5q94 0 183 -24.5t160 -74.5t113 -128t42 -186q0 -99 -37.5 -182.5t-104.5 -136.5q95 -38 147.5 -116t52.5 -197q0 -140 -76 -242t-205.5 -157.5t-290.5 -55.5z" />
    <glyph glyph-name="uni0418" unicode="&#x418;" horiz-adv-x="1436" 
d="M1296 0h-244v1015l-668 -1015h-244v1440h244v-1015l668 1015h244v-1440z" />
    <glyph glyph-name="uni0419" unicode="&#x419;" horiz-adv-x="1436" 
d="M140 0v1440h244v-1015l668 1015h244v-1440h-244v1015l-668 -1015h-244zM717 1562q-84 0 -152.5 41t-109.5 109.5t-41 152.5h188q0 -48 33.5 -81.5t81.5 -33.5t81.5 33.5t33.5 81.5h188q0 -84 -41 -152.5t-110 -109.5t-152 -41z" />
    <glyph glyph-name="uni041A" unicode="&#x41a;" horiz-adv-x="1294" 
d="M140 0v1440h241v-668l575 668h296l-619 -706l661 -734h-306l-607 672v-672h-241z" />
    <glyph glyph-name="uni041B" unicode="&#x41b;" horiz-adv-x="1445" 
d="M40 0v202q48 -3 81 7.5t55.5 41t39.5 87t33 142.5q23 123 38.5 256.5t26.5 263t17 243.5t10 197h964v-1440h-241v1214h-500q-5 -67 -11.5 -161.5t-17 -204.5t-26 -228t-37.5 -232q-20 -104 -48 -186.5t-74.5 -136t-121 -71.5t-188.5 6z" />
    <glyph glyph-name="uni041C" unicode="&#x41c;" horiz-adv-x="1710" 
d="M140 0v1440h217l498 -1020l498 1020h217v-1440h-225v923l-442 -923h-96l-441 923v-923h-226z" />
    <glyph glyph-name="uni041D" unicode="&#x41d;" horiz-adv-x="1443" 
d="M140 0v1440h241v-606h682v606h240v-1440h-240v608h-682v-608h-241z" />
    <glyph glyph-name="uni041E" unicode="&#x41e;" horiz-adv-x="1499" 
d="M749 -30q-216 0 -370 94.5t-236.5 263.5t-82.5 392t82.5 392t236.5 263.5t370 94.5t370.5 -94.5t237 -263.5t82.5 -392t-82.5 -392t-237 -263.5t-370.5 -94.5zM749 197q145 -1 241.5 64t145 183t48.5 276t-48.5 274.5t-145 181.5t-241.5 67q-145 1 -241 -64t-144.5 -183
t-48.5 -276t48 -274.5t144.5 -181.5t241.5 -67z" />
    <glyph glyph-name="uni041F" unicode="&#x41f;" horiz-adv-x="1447" 
d="M140 0v1440h1167v-1440h-241v1214h-685v-1214h-241z" />
    <glyph glyph-name="uni0420" unicode="&#x420;" horiz-adv-x="1277" 
d="M140 0v1440h595q21 0 54 -1.5t61 -6.5q125 -19 206.5 -83t121 -161.5t39.5 -216.5q0 -118 -40 -215.5t-121.5 -161.5t-205.5 -83q-28 -4 -61.5 -6t-53.5 -2h-354v-503h-241zM381 728h344q20 0 45 2t46 8q60 15 94.5 53t49 86t14.5 94t-14.5 94.5t-49 86.5t-94.5 53
q-21 6 -46 7.5t-45 1.5h-344v-486z" />
    <glyph glyph-name="uni0421" unicode="&#x421;" horiz-adv-x="1477" 
d="M749 -30q-216 0 -370 94.5t-236.5 263.5t-82.5 392t82.5 392t236.5 263.5t370 94.5q249 0 415 -124.5t233 -335.5l-243 -67q-42 141 -143 220.5t-262 79.5q-145 0 -241.5 -65t-145 -182.5t-49.5 -275.5q0 -158 48.5 -275.5t145.5 -182.5t242 -65q161 0 262 80t143 220
l243 -67q-67 -211 -233 -335.5t-415 -124.5z" />
    <glyph glyph-name="uni0422" unicode="&#x422;" horiz-adv-x="1213" 
d="M486 0v1214h-466v226h1173v-226h-466v-1214h-241z" />
    <glyph glyph-name="uni0423" unicode="&#x423;" horiz-adv-x="1273" 
d="M330 0l190 388l-497 1052h272l351 -798l362 798h257l-678 -1440h-257z" />
    <glyph glyph-name="uni0424" unicode="&#x424;" horiz-adv-x="1477" 
d="M618 0v205q-111 -19 -211.5 9t-178.5 99.5t-123 184t-45 263.5t45 265t123 187t178.5 102t211.5 10v115h239v-115q111 19 212 -10t179 -102t123.5 -187t45.5 -265t-45.5 -263.5t-123.5 -184t-179 -99.5t-212 -9v-205h-239zM618 426v682q-87 14 -147.5 -11.5t-97 -77
t-52.5 -119.5t-16 -139t16 -137t52.5 -115.5t97 -72.5t147.5 -10zM857 426q88 -13 148 10.5t97 72.5t53.5 113t16.5 132t-16.5 136.5t-53.5 122t-97 81.5t-148 14v-682z" />
    <glyph glyph-name="uni0425" unicode="&#x425;" horiz-adv-x="1311" 
d="M20 0l488 728l-474 712h295l328 -507l325 507h297l-474 -712l486 -728h-295l-339 523l-340 -523h-297z" />
    <glyph glyph-name="uni0426" unicode="&#x426;" horiz-adv-x="1500" 
d="M1239 -227v227h-1099v1440h241v-1226h698v1193h241v-1193h160v-441h-241z" />
    <glyph glyph-name="uni0427" unicode="&#x427;" horiz-adv-x="1352" 
d="M970 0v640l39 -62q-59 -49 -160 -76.5t-215 -27.5q-182 0 -290 71t-156 196t-48 289v410h244v-336q0 -74 8.5 -145.5t38 -129.5t90.5 -92.5t165 -34.5q116 0 198 39t116 83l-30 -121v737h242v-1440h-242z" />
    <glyph glyph-name="uni0428" unicode="&#x428;" horiz-adv-x="1893" 
d="M140 0v1440h241v-1214h445v1214h241v-1214h446v1214h240v-1440h-1613z" />
    <glyph glyph-name="uni0429" unicode="&#x429;" horiz-adv-x="1933" 
d="M1672 -227v227h-140v214h381v-441h-241zM140 0v1440h241v-1214h445v1214h241v-1214h446v1214h240v-1440h-1613z" />
    <glyph glyph-name="uni042A" unicode="&#x42a;" horiz-adv-x="1317" 
d="M193 0v1251h-196v189h437v-503h354q20 0 54 -1.5t62 -6.5q124 -19 205.5 -83t121 -161.5t39.5 -215.5q0 -119 -39.5 -216.5t-121 -161.5t-205.5 -83q-28 -4 -61.5 -6t-54.5 -2h-595zM434 226h344q21 0 45.5 2t46.5 7q59 15 93.5 53t49 86.5t14.5 94.5t-14.5 94t-49 86
t-93.5 53q-22 6 -46.5 8t-45.5 2h-344v-486z" />
    <glyph glyph-name="uni042B" unicode="&#x42b;" horiz-adv-x="1739" 
d="M138 0v1440h241v-503h354q20 0 54 -1.5t62 -6.5q124 -19 205.5 -83t121 -161.5t39.5 -215.5q0 -119 -39.5 -216.5t-121 -161.5t-205.5 -83q-28 -4 -61.5 -6t-54.5 -2h-595zM379 226h344q21 0 45.5 2t46.5 7q59 15 93.5 53t49 86.5t14.5 94.5t-14.5 94t-49 86t-93.5 53
q-22 6 -46.5 8t-45.5 2h-344v-486zM1359 0v1440h241v-1440h-241z" />
    <glyph glyph-name="uni042C" unicode="&#x42c;" horiz-adv-x="1295" 
d="M138 0v1440h241v-503h354q20 0 54 -1.5t62 -6.5q124 -19 205.5 -83t121 -161.5t39.5 -215.5q0 -119 -39.5 -216.5t-121 -161.5t-205.5 -83q-28 -4 -61.5 -6t-54.5 -2h-595zM379 226h344q21 0 45.5 2t46.5 7q59 15 93.5 53t49 86.5t14.5 94.5t-14.5 94t-49 86t-93.5 53
q-22 6 -46.5 8t-45.5 2h-344v-486z" />
    <glyph glyph-name="uni042D" unicode="&#x42d;" horiz-adv-x="1439" 
d="M705 -30q-161 0 -288 50.5t-215 152t-132 252.5l236 59q40 -128 141 -208t243 -79q99 2 187.5 39t144.5 114q45 57 66 122.5t29 135.5h-510v226h512q-16 122 -70 214.5t-144.5 144t-214.5 49.5q-148 -1 -250 -82t-139 -219l-241 34q54 237 222 366t423 129
q209 0 359.5 -94.5t232 -263.5t82.5 -392q1 -210 -79 -380t-231.5 -270t-363.5 -100z" />
    <glyph glyph-name="uni042E" unicode="&#x42e;" horiz-adv-x="1893" 
d="M140 0v1440h241v-600h278v-240h-278v-600h-241zM1226 -30q-143 0 -255.5 53t-190.5 152t-119 237.5t-41 307.5q0 170 41 308t119 237t190.5 152t255.5 53t256 -53t191 -152t119 -237t41 -308q0 -171 -41 -309t-119 -237t-191 -151.5t-256 -52.5zM1226 197q90 0 156 38.5
t109 109t65 166t22 209.5t-21.5 209.5t-64.5 165.5t-109.5 108.5t-156.5 38.5q-89 0 -155 -38.5t-109.5 -108.5t-65 -165.5t-21.5 -209.5t21.5 -209.5t64.5 -166t109.5 -109t155.5 -38.5z" />
    <glyph glyph-name="uni042F" unicode="&#x42f;" horiz-adv-x="1320" 
d="M1180 0h-240v503h-372l-103 9q-184 30 -273 156.5t-89 302.5q0 119 40 216.5t121 161.5t206 83q29 5 61.5 6.5t53.5 1.5h595v-1440zM353 0h-273l312 640l245 -54zM940 728v486h-345q-20 0 -45 -1.5t-46 -7.5q-60 -15 -94.5 -53t-48.5 -86.5t-14 -94.5t14 -94t48.5 -86
t94.5 -53q21 -6 46 -8t45 -2h345z" />
    <glyph glyph-name="uni0430" unicode="&#x430;" horiz-adv-x="1152" 
d="M442 -30q-117 0 -198 44.5t-122.5 118.5t-41.5 163q0 78 26 140.5t80 108t140 74.5q65 21 152.5 38t190 31.5t214.5 31.5l-86 -49q1 112 -50 165t-172 53q-73 0 -141 -34t-95 -117l-220 69q40 137 152.5 220t303.5 83q144 0 253.5 -47t162.5 -154q29 -57 35 -116.5
t6 -129.5v-663h-211v234l35 -38q-73 -117 -170.5 -171.5t-243.5 -54.5zM490 162q82 0 140 29t92.5 71t46.5 79q19 46 21.5 105.5t2.5 96.5l74 -22q-109 -17 -187 -30t-134 -24.5t-99 -25.5q-42 -15 -71 -35t-44.5 -46t-15.5 -61q0 -40 20 -70.5t58.5 -48.5t95.5 -18z" />
    <glyph glyph-name="uni0431" unicode="&#x431;" horiz-adv-x="1197" 
d="M589 -32q-154 2 -262 69t-169 189t-74 288q-6 85 -1 190t22 205t47 170q31 70 81 129.5t108 99.5q66 46 143.5 71t162.5 38.5t175 24.5t178 28l22 -213q-56 -14 -129.5 -21.5t-152 -16.5t-149.5 -26t-123 -50q-72 -44 -110 -126t-45 -173q62 92 154.5 129.5t187.5 37.5
q144 0 247.5 -68t159 -184.5t55.5 -259.5q0 -160 -67 -280t-186 -186t-275 -65zM601 194q130 0 196.5 80.5t66.5 214.5q0 137 -68.5 216t-194.5 79q-128 0 -195 -79t-67 -216q0 -140 68 -217.5t194 -77.5z" />
    <glyph glyph-name="uni0432" unicode="&#x432;" horiz-adv-x="1118" 
d="M138 0v1080h491q53 0 99 -6t79 -15q78 -23 138 -89.5t60 -183.5q0 -69 -22 -113.5t-58 -74.5q-17 -14 -35 -24t-36 -16q39 -6 74 -23q55 -27 92.5 -80t37.5 -149q0 -109 -52.5 -183.5t-153.5 -103.5q-37 -10 -85 -14.5t-98 -4.5h-531zM382 186h270q21 0 46 4t45 11
q36 13 52.5 46t16.5 69q0 49 -24.5 78.5t-58.5 39.5q-20 8 -43.5 9.5t-38.5 1.5h-265v-259zM382 634h200q31 0 60.5 3.5t49.5 12.5q33 13 48.5 44t15.5 69q0 40 -17.5 72.5t-55.5 43.5q-25 10 -60.5 11t-45.5 1h-195v-257z" />
    <glyph glyph-name="uni0433" unicode="&#x433;" horiz-adv-x="960" 
d="M140 0v1080h770v-226h-529v-854h-241z" />
    <glyph glyph-name="uni0434" unicode="&#x434;" horiz-adv-x="1267" 
d="M60 -240v429q88 0 125 60t59 208q14 88 23 186t15.5 207t11.5 230h804v-891h109v-429h-228v240h-692v-240h-227zM383 189h475v702h-353q-3 -60 -7 -122.5t-9 -124.5t-10.5 -118.5t-12.5 -104.5q-11 -84 -27 -138t-56 -94z" />
    <glyph glyph-name="uni0435" unicode="&#x435;" horiz-adv-x="1204" 
d="M631 -30q-164 0 -288 71t-193.5 197t-69.5 290q0 177 68 307.5t189 202.5t280 72q168 0 285.5 -78.5t174.5 -221.5t43 -337h-239v88q-1 176 -62 257t-192 81q-148 0 -220 -91.5t-72 -267.5q0 -164 72 -254t210 -90q89 0 153.5 39.5t99.5 114.5l238 -72
q-62 -146 -191.5 -227t-285.5 -81zM259 473v182h743v-182h-743z" />
    <glyph glyph-name="uni0436" unicode="&#x436;" horiz-adv-x="1531" 
d="M20 0l396 540l-372 540h264l351 -523v523h214v-523l351 523h263l-372 -540l396 -540h-278l-360 523v-523h-214v523l-361 -523h-278z" />
    <glyph glyph-name="uni0437" unicode="&#x437;" horiz-adv-x="1041" 
d="M524 -30q-154 0 -281 65t-200 178l190 127q58 -69 129 -106.5t158 -37.5q91 0 143 40t52 107q0 59 -35 83.5t-92 29.5t-122 5h-80v191h79q91 0 152.5 21t61.5 93q0 65 -48 92.5t-112 27.5q-78 0 -154 -33t-136 -80l-136 164q90 80 201 126.5t237 46.5q104 0 194.5 -36
t146 -108t55.5 -178q0 -76 -32.5 -143t-103.5 -127l-3 78q55 -23 93.5 -64t59 -96t20.5 -117q0 -113 -60 -191t-159.5 -118t-217.5 -40z" />
    <glyph glyph-name="uni0438" unicode="&#x438;" horiz-adv-x="1216" 
d="M1076 1080v-1080h-231v705l-514 -705h-193v1080h231v-687l516 687h191z" />
    <glyph glyph-name="uni0439" unicode="&#x439;" horiz-adv-x="1216" 
d="M639 1202q-83 0 -152 41t-110 109.5t-41 152.5h188q0 -48 33.5 -81.5t81.5 -33.5t81.5 33.5t33.5 81.5h188q0 -84 -41 -152.5t-110 -109.5t-152 -41zM1076 1080v-1080h-231v705l-514 -705h-193v1080h231v-687l516 687h191z" />
    <glyph glyph-name="uni043A" unicode="&#x43a;" horiz-adv-x="1076" 
d="M138 0l2 1080h244v-520l395 520h301l-419 -540l455 -540h-319l-413 520v-520h-246z" />
    <glyph glyph-name="uni043B" unicode="&#x43b;" horiz-adv-x="1210" 
d="M40 0v202q59 -11 91 2.5t48 51.5t28 101q16 89 28.5 205t22 248t17.5 270h795v-1080h-240v854h-343q-5 -65 -12 -145.5t-15 -162.5t-17.5 -155.5t-19.5 -125.5q-23 -117 -65.5 -185t-118.5 -87.5t-199 7.5z" />
    <glyph glyph-name="uni043C" unicode="&#x43c;" horiz-adv-x="1448" 
d="M138 0v1080h198l387 -746l388 746h197v-1080h-230v595l-307 -595h-95l-307 595v-595h-231z" />
    <glyph glyph-name="uni043D" unicode="&#x43d;" horiz-adv-x="1245" 
d="M138 0v1080h241v-426h485v426h241v-1080h-241v428h-485v-428h-241z" />
    <glyph glyph-name="uni043E" unicode="&#x43e;" horiz-adv-x="1236" 
d="M617 -30q-162 0 -283 73t-187.5 201.5t-66.5 295.5q0 170 68 298t189 200t280 72q163 0 284 -73t188 -201.5t67 -295.5q0 -168 -67.5 -296.5t-188.5 -201t-283 -72.5zM617 196q144 0 214 96t70 248q0 157 -71 250.5t-213 93.5q-97 0 -159.5 -43.5t-92.5 -121t-30 -179.5
q0 -157 71.5 -250.5t210.5 -93.5z" />
    <glyph glyph-name="uni043F" unicode="&#x43f;" horiz-adv-x="1216" 
d="M138 0v1080h938v-1080h-241v854h-456v-854h-241z" />
    <glyph glyph-name="uni0440" unicode="&#x440;" horiz-adv-x="1232" 
d="M659 -30q-158 0 -265 75t-161 204.5t-54 290.5q0 163 54 292t158.5 203.5t258.5 74.5q153 0 265.5 -74.5t174.5 -203t62 -292.5q0 -162 -61 -291t-172 -204t-260 -75zM138 -480v1560h213v-758h30v-802h-243zM622 186q94 0 155 47t90.5 127.5t29.5 179.5q0 98 -30 178.5
t-93 128t-160 47.5q-92 0 -150 -44.5t-85.5 -124t-27.5 -185.5q0 -105 27.5 -185t87 -124.5t156.5 -44.5z" />
    <glyph glyph-name="uni0441" unicode="&#x441;" horiz-adv-x="1151" 
d="M609 -30q-167 0 -285 74.5t-180.5 203.5t-63.5 292q1 166 65.5 294.5t183.5 202t283 73.5q184 0 311.5 -92.5t166.5 -252.5l-240 -65q-28 87 -93 135.5t-148 48.5q-94 0 -155 -44.5t-90 -122.5t-29 -177q0 -154 69 -249t205 -95q96 0 151.5 44t83.5 127l246 -55
q-50 -165 -175 -253.5t-306 -88.5z" />
    <glyph glyph-name="uni0442" unicode="&#x442;" horiz-adv-x="1063" 
d="M411 0v866h-361v214h963v-214h-361v-866h-241z" />
    <glyph glyph-name="uni0443" unicode="&#x443;" horiz-adv-x="1119" 
d="M282 -480l208 571l4 -168l-471 1157h251l334 -856h-64l325 856h241l-602 -1560h-226z" />
    <glyph glyph-name="uni0444" unicode="&#x444;" horiz-adv-x="1506" 
d="M646 -450v431q-158 -25 -286.5 34t-204 192t-75.5 333q0 199 75.5 333t204 192.5t286.5 33.5v324h214v-324q158 25 286.5 -33.5t204 -192.5t75.5 -333q0 -200 -75.5 -333t-204 -192t-286.5 -34v-431h-214zM646 197v684q-81 14 -141.5 -4.5t-100 -64t-59.5 -115
t-20 -157.5q0 -89 20.5 -158t61.5 -115t101 -64.5t138 -5.5zM860 197q78 -13 138 5t101 63t61.5 114.5t20.5 160.5t-20 160t-59.5 114.5t-100 63t-141.5 3.5v-684z" />
    <glyph glyph-name="uni0445" unicode="&#x445;" horiz-adv-x="1108" 
d="M20 0l395 546l-387 534h284l243 -345l239 345h284l-387 -534l397 -546h-284l-249 357l-251 -357h-284z" />
    <glyph glyph-name="uni0446" unicode="&#x446;" horiz-adv-x="1305" 
d="M1044 -227v227h-906v1080h241v-854h456v854h241v-866h209v-441h-241z" />
    <glyph glyph-name="uni0447" unicode="&#x447;" horiz-adv-x="1151" 
d="M769 0v363q-56 -28 -127.5 -44t-149.5 -16q-167 0 -266.5 75t-128.5 218q-9 41 -12.5 85.5t-4 81t-0.5 55.5v262h244v-262q0 -22 2 -64.5t11 -84.5q19 -80 69 -117t143 -37q72 0 127 19t93 48v498h242v-1080h-242z" />
    <glyph glyph-name="uni0448" unicode="&#x448;" horiz-adv-x="1581" 
d="M138 0v1080h231v-866h305v866h231v-866h305v866h231v-1080h-1303z" />
    <glyph glyph-name="uni0449" unicode="&#x449;" horiz-adv-x="1562" 
d="M1301 -227v227h-1163v1080h231v-866h305v866h231v-866h305v866h231v-866h101v-441h-241z" />
    <glyph glyph-name="uni044A" unicode="&#x44a;" horiz-adv-x="1196" 
d="M197 0v891h-157v189h398v-360h193q46 0 102 -2t95 -9q91 -20 155 -64t98.5 -115t34.5 -171q0 -143 -74 -228.5t-207 -116.5q-40 -9 -97.5 -11.5t-102.5 -2.5h-438zM438 189h218q21 0 48 2t52 9q45 12 80 54.5t35 104.5q0 65 -35.5 107t-85.5 55q-24 6 -48.5 8t-45.5 2
h-218v-342z" />
    <glyph glyph-name="uni044B" unicode="&#x44b;" horiz-adv-x="1478" 
d="M139 0l-1 1080h241v-360h121q45 0 101.5 -2t94.5 -9q91 -20 155.5 -64t98.5 -115t34 -171q0 -143 -74 -228.5t-207 -116.5q-39 -9 -97 -11.5t-103 -2.5h-364zM379 189h145q22 0 49 2t51 9q45 12 80 54.5t35 104.5q0 65 -35 107t-86 55q-24 6 -48.5 8t-45.5 2h-145v-342z
M1097 0v1080h241v-1080h-241z" />
    <glyph glyph-name="uni044C" unicode="&#x44c;" horiz-adv-x="1137" 
d="M139 0l-1 1080h241v-360h194q45 0 101.5 -2t94.5 -9q91 -20 155.5 -64t98.5 -115t34 -171q0 -143 -73.5 -228.5t-206.5 -116.5q-40 -9 -97.5 -11.5t-103.5 -2.5h-437zM379 189h218q22 0 49 2t52 9q45 12 79.5 54.5t34.5 104.5q0 65 -35 107t-86 55q-23 6 -48 8t-46 2
h-218v-342z" />
    <glyph glyph-name="uni044D" unicode="&#x44d;" horiz-adv-x="1153" 
d="M544 -30q-180 0 -305 88.5t-176 253.5l246 55q28 -83 83.5 -127t151.5 -44q114 0 181 68t84 182h-359v189h359q-16 108 -80 178.5t-178 70.5q-88 0 -153.5 -47t-94.5 -137l-240 65q39 160 166.5 252.5t312.5 92.5q163 0 282.5 -73.5t184 -202.5t64.5 -296
q0 -163 -63 -291.5t-181.5 -202.5t-284.5 -74z" />
    <glyph glyph-name="uni044E" unicode="&#x44e;" horiz-adv-x="1702" 
d="M1083 -30q-129 0 -232.5 53.5t-172 154t-89.5 242.5h-210v-420h-241v1080h241v-420h210q21 144 90 244.5t174 153t235 52.5q160 0 280 -73.5t187 -201.5t67 -293q0 -169 -68 -298t-189 -201.5t-282 -72.5zM1081 196q144 0 215 96t71 248q0 159 -71.5 251.5t-214.5 92.5
q-142 0 -211 -93.5t-69 -248.5q0 -159 71 -252.5t209 -93.5z" />
    <glyph glyph-name="uni044F" unicode="&#x44f;" horiz-adv-x="1167" 
d="M786 0v360h-193q-37 0 -92.5 2t-103.5 10q-125 23 -207 109.5t-82 235.5q0 146 78 235t203 114q52 11 107.5 12.5t92.5 1.5h438v-1080h-241zM80 0l258 413h251l-256 -413h-253zM568 549h218v342h-218q-19 0 -46 -2t-54 -9q-29 -9 -55 -31t-43 -55t-17 -75
q0 -63 36.5 -104.5t85.5 -55.5q24 -6 49.5 -8t43.5 -2z" />
    <glyph glyph-name="uni0450" unicode="&#x450;" horiz-adv-x="1204" 
d="M528 1235l-154 370h182l155 -370h-183zM631 -30q-164 0 -288 71t-193.5 197t-69.5 290q0 177 68 307.5t189 202.5t280 72q168 0 285.5 -78.5t174.5 -221.5t43 -337h-239v88q-1 176 -62 257t-192 81q-148 0 -220 -91.5t-72 -267.5q0 -164 72 -254t210 -90q89 0 153.5 39.5
t99.5 114.5l238 -72q-62 -146 -191.5 -227t-285.5 -81zM259 473v182h743v-182h-743z" />
    <glyph glyph-name="uni0451" unicode="&#x451;" horiz-adv-x="1204" 
d="M714 1247v220h220v-220h-220zM301 1247v220h220v-220h-220zM631 -30q-164 0 -288 71t-193.5 197t-69.5 290q0 177 68 307.5t189 202.5t280 72q168 0 285.5 -78.5t174.5 -221.5t43 -337h-239v88q-1 176 -62 257t-192 81q-148 0 -220 -91.5t-72 -267.5q0 -164 72 -254
t210 -90q89 0 153.5 39.5t99.5 114.5l238 -72q-62 -146 -191.5 -227t-285.5 -81zM259 473v182h743v-182h-743z" />
    <glyph glyph-name="uni0452" unicode="&#x452;" 
d="M938 -449q-62 -14 -126.5 -7t-102.5 16v172q27 -2 58 -2.5t58.5 10.5t44.5 41.5t17 90.5v648q0 51 -7 113t-32.5 119.5t-76 94.5t-136.5 37q-46 0 -91 -15t-81.5 -51.5t-58.5 -100t-22 -162.5v-555h-242v1167h-110v187h110v86h213v-86h210v-187h-210v-209
q59 72 148 112.5t205 40.5q120 0 198 -40t124 -102t68 -132t28.5 -132.5t6.5 -101.5v-781q0 -112 -49 -181t-144 -90z" />
    <glyph glyph-name="uni0453" unicode="&#x453;" horiz-adv-x="960" 
d="M564 1235h-183l154 370h183zM140 0v1080h770v-226h-529v-854h-241z" />
    <glyph glyph-name="uni0454" unicode="&#x454;" horiz-adv-x="1153" 
d="M609 -30q-166 0 -284.5 74t-181.5 202.5t-63 291.5q0 167 65 296t184 202.5t282 73.5q185 0 312.5 -92.5t166.5 -252.5l-240 -65q-29 90 -94.5 137t-153.5 47q-113 0 -177.5 -70.5t-80.5 -178.5h359v-189h-359q18 -114 84.5 -182t180.5 -68q96 0 151.5 44t83.5 127
l246 -55q-50 -165 -175 -253.5t-306 -88.5z" />
    <glyph glyph-name="uni0455" unicode="&#x455;" horiz-adv-x="1083" 
d="M557 -30q-200 0 -325 90t-152 253l246 38q19 -80 84 -126t164 -46q87 0 134.5 34.5t47.5 94.5q0 37 -17.5 59.5t-76.5 43.5t-181 53q-136 36 -216 77.5t-115 98.5t-35 138q0 101 53 176t148 115.5t224 40.5q126 0 223.5 -39t157.5 -111t74 -169l-246 -44q-9 69 -62.5 109
t-142.5 45q-85 5 -137 -25.5t-52 -85.5q0 -31 21 -53t84.5 -44t189.5 -54q129 -33 206.5 -75.5t112 -101.5t34.5 -143q0 -163 -118.5 -256t-327.5 -93z" />
    <glyph glyph-name="uni0456" unicode="&#x456;" horiz-adv-x="561" 
d="M160 1244v221h241v-221h-241zM160 0v1080h241v-1080h-241z" />
    <glyph glyph-name="uni0457" unicode="&#x457;" horiz-adv-x="561" 
d="M377 1247v220h220v-220h-220zM-36 1247v220h220v-220h-220zM160 0v1080h241v-1080h-241z" />
    <glyph glyph-name="uni0458" unicode="&#x458;" horiz-adv-x="577" 
d="M-20 -480v226h51q88 0 125 41t37 121v1172h240v-1280q0 -131 -76.5 -205.5t-212.5 -74.5h-164zM193 1244v221h240v-221h-240z" />
    <glyph glyph-name="uni0459" unicode="&#x459;" horiz-adv-x="1712" 
d="M40 0v202q59 -11 91 2t48 51.5t28 101.5q16 89 28.5 205t22 248t17.5 270h752v-360h120q55 0 103 -1.5t94 -9.5q83 -16 148.5 -59.5t102.5 -115t37 -172.5q0 -147 -78 -235t-203 -113q-53 -10 -108.5 -12t-91.5 -2h-365v854h-299q-5 -65 -12 -145.5t-15 -162.5
t-17.5 -155.5t-19.5 -125.5q-23 -117 -65.5 -185t-118.5 -87.5t-199 7.5zM1027 189h145q22 0 48.5 2t51.5 9q30 8 56 30t42.5 55t16.5 76q0 65 -36 106t-85 54q-25 7 -50.5 8.5t-43.5 1.5h-145v-342z" />
    <glyph glyph-name="uni045A" unicode="&#x45a;" horiz-adv-x="1670" 
d="M138 0v1080h241v-360h365v360h241v-360h120q55 0 103 -1.5t94 -9.5q83 -16 148.5 -59.5t102.5 -115t37 -172.5q0 -147 -78 -235t-203 -113q-53 -10 -108.5 -12t-91.5 -2h-365v531h-365v-531h-241zM985 189h145q22 0 48.5 2t51.5 9q30 8 56 30t42.5 55t16.5 76
q0 65 -36 106t-85 54q-25 7 -50.5 8.5t-43.5 1.5h-145v-342z" />
    <glyph glyph-name="uni045B" unicode="&#x45b;" 
d="M30 1167v187h533v-187h-533zM887 0v520q0 51 -7 113t-32.5 119.5t-76 94.5t-136.5 37q-46 0 -91 -15t-81.5 -51.5t-58.5 -100t-22 -162.5l-143 61q0 138 53.5 250t157.5 178.5t256 66.5q120 0 198 -40t124 -102t68 -132t28.5 -132.5t6.5 -101.5v-603h-244zM138 0v1440
h215v-758h29v-682h-244z" />
    <glyph glyph-name="uni045C" unicode="&#x45c;" horiz-adv-x="1076" 
d="M601 1235h-183l155 370h183zM138 0l2 1080h244v-520l395 520h301l-419 -540l455 -540h-319l-413 520v-520h-246z" />
    <glyph glyph-name="uni045D" unicode="&#x45d;" horiz-adv-x="1216" 
d="M603 1235l-154 370h183l154 -370h-183zM1076 1080v-1080h-231v705l-514 -705h-193v1080h231v-687l516 687h191z" />
    <glyph glyph-name="uni045E" unicode="&#x45e;" horiz-adv-x="1119" 
d="M582 1202q-84 0 -152.5 41t-109.5 109.5t-41 152.5h188q0 -48 33.5 -81.5t81.5 -33.5t81.5 33.5t33.5 81.5h188q0 -84 -41 -152.5t-110 -109.5t-152 -41zM282 -480l208 571l4 -168l-471 1157h251l334 -856h-64l325 856h241l-602 -1560h-226z" />
    <glyph glyph-name="uni045F" unicode="&#x45f;" horiz-adv-x="1216" 
d="M501 -240v240h-363v1080h241v-854h456v854h241v-1080h-334v-240h-241z" />
    <glyph glyph-name="uni0490" unicode="&#x490;" horiz-adv-x="1110" 
d="M140 0v1440h709v227h241v-453h-709v-1214h-241z" />
    <glyph glyph-name="uni0491" unicode="&#x491;" horiz-adv-x="960" 
d="M140 0v1080h529v227h241v-453h-529v-854h-241z" />
    <glyph glyph-name="Ustraitcy" unicode="&#x4ae;" horiz-adv-x="1223" 
d="M490 0v590l-490 850h281l331 -574l330 574h281l-489 -850v-590h-244z" />
    <glyph glyph-name="ustraitcy" unicode="&#x4af;" horiz-adv-x="1106" 
d="M432 -360v360l-392 1080h242l271 -783l272 783h241l-392 -1080v-360h-242z" />
    <glyph glyph-name="uni04BA" unicode="&#x4ba;" horiz-adv-x="1352" 
d="M382 1440v-640l-38 62q59 50 160 77t214 27q182 0 290.5 -71t156 -196t47.5 -289v-410h-244v336q0 74 -8.5 145.5t-37.5 129.5t-89.5 92.5t-165.5 34.5q-117 0 -198.5 -38.5t-116.5 -83.5l30 121v-737h-242v1440h242z" />
    <glyph glyph-name="uni04BB" unicode="&#x4bb;" horiz-adv-x="1158" 
d="M389 1080v-363q56 29 127.5 44.5t149.5 15.5q167 0 266.5 -75t128.5 -218q8 -41 11.5 -85t4.5 -81t1 -56v-262h-244v262q0 23 -1.5 65t-12.5 84q-18 80 -68 117t-143 37q-72 0 -126.5 -19t-93.5 -48v-498h-242v1080h242z" />
    <glyph glyph-name="uni04E8" unicode="&#x4e8;" horiz-adv-x="1539" 
d="M263 600v240h997v-240h-997zM749 -30q-216 0 -370 94.5t-236.5 263.5t-82.5 392t82.5 392t236.5 263.5t370 94.5t370.5 -94.5t237 -263.5t82.5 -392t-82.5 -392t-237 -263.5t-370.5 -94.5zM749 197q145 -1 241.5 64t145 183t48.5 276t-48.5 274.5t-145 181.5t-241.5 67
q-145 1 -241 -64t-144.5 -183t-48.5 -276t48 -274.5t144.5 -181.5t241.5 -67z" />
    <glyph glyph-name="uni04E9" unicode="&#x4e9;" horiz-adv-x="1236" 
d="M194 446v189h852v-189h-852zM617 -30q-162 0 -283 73t-187.5 201.5t-66.5 295.5q0 170 68 298t189 200t280 72q163 0 284 -73t188 -201.5t67 -295.5q0 -168 -67.5 -296.5t-188.5 -201t-283 -72.5zM617 196q144 0 214 96t70 248q0 157 -71 250.5t-213 93.5
q-97 0 -159.5 -43.5t-92.5 -121t-30 -179.5q0 -157 71.5 -250.5t210.5 -93.5z" />
    <glyph glyph-name="Wgrave" unicode="&#x1e80;" horiz-adv-x="1951" 
d="M872 1595l-154 370h183l154 -370h-183zM444 0l-421 1440h253l287 -1040l286 1038l253 2l287 -1040l286 1040h253l-420 -1440h-238l-295 1024l-293 -1024h-238z" />
    <glyph glyph-name="wgrave" unicode="&#x1e81;" horiz-adv-x="1605" 
d="M699 1235l-154 370h182l155 -370h-183zM370 0l-330 1082l236 -2l211 -693l214 693h203l213 -693l212 693h236l-330 -1080h-188l-245 743l-244 -743h-188z" />
    <glyph glyph-name="Wacute" unicode="&#x1e82;" horiz-adv-x="1951" 
d="M1079 1595h-183l154 370h183zM444 0l-421 1440h253l287 -1040l286 1038l253 2l287 -1040l286 1040h253l-420 -1440h-238l-295 1024l-293 -1024h-238z" />
    <glyph glyph-name="wacute" unicode="&#x1e83;" horiz-adv-x="1605" 
d="M906 1235h-183l154 370h183zM370 0l-330 1082l236 -2l211 -693l214 693h203l213 -693l212 693h236l-330 -1080h-188l-245 743l-244 -743h-188z" />
    <glyph glyph-name="Wdieresis" unicode="&#x1e84;" horiz-adv-x="1951" 
d="M1073 1607v220h220v-220h-220zM660 1607v220h220v-220h-220zM444 0l-421 1440h253l287 -1040l286 1038l253 2l287 -1040l286 1040h253l-420 -1440h-238l-295 1024l-293 -1024h-238z" />
    <glyph glyph-name="wdieresis" unicode="&#x1e85;" horiz-adv-x="1605" 
d="M899 1247v220h220v-220h-220zM486 1247v220h220v-220h-220zM370 0l-330 1082l236 -2l211 -693l214 693h203l213 -693l212 693h236l-330 -1080h-188l-245 743l-244 -743h-188z" />
    <glyph glyph-name="uni1E9E" unicode="&#x1e9e;" horiz-adv-x="1500" 
d="M922 -30q-64 0 -118.5 8t-90.5 22v236q41 -16 85.5 -23t91.5 -7q72 0 130 24t92 73.5t33 127.5q0 88 -47 141.5t-122 77.5t-159 25l-42 153l227 368q-49 24 -104 36t-116 12q-141 0 -240 -65t-135 -188q-13 -48 -19 -109.5t-6 -124.5v-757h-244v816q0 93 9.5 162.5
t28.5 122.5q45 130 134 211.5t205.5 119.5t244.5 38q136 0 235 -26.5t173 -65.5t134 -77l-268 -462q94 -19 172.5 -72t126 -139t47.5 -205q0 -206 -118.5 -329.5t-339.5 -123.5z" />
    <glyph glyph-name="uni1EA0" unicode="&#x1ea0;" horiz-adv-x="1341" 
d="M547 -388v221h247v-221h-247zM40 0l454 1440h353l454 -1440h-248l-412 1292h54l-407 -1292h-248zM293 312v225h756v-225h-756z" />
    <glyph glyph-name="uni1EA1" unicode="&#x1ea1;" horiz-adv-x="1152" 
d="M462 -388v221h247v-221h-247zM442 -30q-117 0 -198 44.5t-122.5 118.5t-41.5 163q0 78 26 140.5t80 108t140 74.5q65 21 152.5 38t190 31.5t214.5 31.5l-86 -49q1 112 -50 165t-172 53q-73 0 -141 -34t-95 -117l-220 69q40 137 152.5 220t303.5 83q144 0 253.5 -47
t162.5 -154q29 -57 35 -116.5t6 -129.5v-663h-211v234l35 -38q-73 -117 -170.5 -171.5t-243.5 -54.5zM490 162q82 0 140 29t92.5 71t46.5 79q19 46 21.5 105.5t2.5 96.5l74 -22q-109 -17 -187 -30t-134 -24.5t-99 -25.5q-42 -15 -71 -35t-44.5 -46t-15.5 -61q0 -40 20 -70.5
t58.5 -48.5t95.5 -18z" />
    <glyph glyph-name="uni1EA2" unicode="&#x1ea2;" horiz-adv-x="1341" 
d="M525 1873l-62 119q57 51 132 65t142.5 -15.5t100.5 -111.5q27 -66 18 -121.5t-42.5 -97.5t-80 -67.5t-95.5 -32.5l-44 99q56 17 91 57t9 95q-17 37 -47 44t-62.5 -3.5t-59.5 -29.5zM40 0l454 1440h353l454 -1440h-248l-412 1292h54l-407 -1292h-248zM293 312v225h756
v-225h-756z" />
    <glyph glyph-name="uni1EA3" unicode="&#x1ea3;" horiz-adv-x="1152" 
d="M465 1520l-62 119q57 50 132 64.5t142.5 -15t100.5 -111.5q27 -66 18 -121.5t-42 -98t-80 -68t-96 -31.5l-43 98q55 18 90 58t9 95q-17 36 -46.5 43t-62.5 -3t-60 -29zM442 -30q-117 0 -198 44.5t-122.5 118.5t-41.5 163q0 78 26 140.5t80 108t140 74.5q65 21 152.5 38
t190 31.5t214.5 31.5l-86 -49q1 112 -50 165t-172 53q-73 0 -141 -34t-95 -117l-220 69q40 137 152.5 220t303.5 83q144 0 253.5 -47t162.5 -154q29 -57 35 -116.5t6 -129.5v-663h-211v234l35 -38q-73 -117 -170.5 -171.5t-243.5 -54.5zM490 162q82 0 140 29t92.5 71
t46.5 79q19 46 21.5 105.5t2.5 96.5l74 -22q-109 -17 -187 -30t-134 -24.5t-99 -25.5q-42 -15 -71 -35t-44.5 -46t-15.5 -61q0 -40 20 -70.5t58.5 -48.5t95.5 -18z" />
    <glyph glyph-name="uni1EA4" unicode="&#x1ea4;" horiz-adv-x="1341" 
d="M293 1595l273 315h202l274 -315h-225l-150 178l-149 -178h-225zM1179 1805h-183l155 370h183zM40 0l454 1440h353l454 -1440h-248l-412 1292h54l-407 -1292h-248zM293 312v225h756v-225h-756z" />
    <glyph glyph-name="uni1EA5" unicode="&#x1ea5;" horiz-adv-x="1152" 
d="M224 1235l273 315h202l274 -315h-225l-150 178l-149 -178h-225zM1110 1445h-183l155 370h183zM442 -30q-117 0 -198 44.5t-122.5 118.5t-41.5 163q0 78 26 140.5t80 108t140 74.5q65 21 152.5 38t190 31.5t214.5 31.5l-86 -49q1 112 -50 165t-172 53q-73 0 -141 -34
t-95 -117l-220 69q40 137 152.5 220t303.5 83q144 0 253.5 -47t162.5 -154q29 -57 35 -116.5t6 -129.5v-663h-211v234l35 -38q-73 -117 -170.5 -171.5t-243.5 -54.5zM490 162q82 0 140 29t92.5 71t46.5 79q19 46 21.5 105.5t2.5 96.5l74 -22q-109 -17 -187 -30t-134 -24.5
t-99 -25.5q-42 -15 -71 -35t-44.5 -46t-15.5 -61q0 -40 20 -70.5t58.5 -48.5t95.5 -18z" />
    <glyph glyph-name="uni1EA6" unicode="&#x1ea6;" horiz-adv-x="1341" 
d="M293 1595l273 315h202l274 -315h-225l-150 178l-149 -178h-225zM1010 1805l-154 370h183l154 -370h-183zM40 0l454 1440h353l454 -1440h-248l-412 1292h54l-407 -1292h-248zM293 312v225h756v-225h-756z" />
    <glyph glyph-name="uni1EA7" unicode="&#x1ea7;" horiz-adv-x="1152" 
d="M219 1235l273 315h202l273 -315h-225l-149 178l-150 -178h-224zM935 1445l-154 370h183l154 -370h-183zM442 -30q-117 0 -198 44.5t-122.5 118.5t-41.5 163q0 78 26 140.5t80 108t140 74.5q65 21 152.5 38t190 31.5t214.5 31.5l-86 -49q1 112 -50 165t-172 53
q-73 0 -141 -34t-95 -117l-220 69q40 137 152.5 220t303.5 83q144 0 253.5 -47t162.5 -154q29 -57 35 -116.5t6 -129.5v-663h-211v234l35 -38q-73 -117 -170.5 -171.5t-243.5 -54.5zM490 162q82 0 140 29t92.5 71t46.5 79q19 46 21.5 105.5t2.5 96.5l74 -22
q-109 -17 -187 -30t-134 -24.5t-99 -25.5q-42 -15 -71 -35t-44.5 -46t-15.5 -61q0 -40 20 -70.5t58.5 -48.5t95.5 -18z" />
    <glyph glyph-name="uni1EA8" unicode="&#x1ea8;" horiz-adv-x="1341" 
d="M294 1595l273 315h202l274 -315h-225l-150 178l-149 -178h-225zM1006 1873l-63 119q57 51 132 65t142.5 -15.5t100.5 -111.5q27 -66 18 -121.5t-42 -97.5t-80 -67.5t-96 -32.5l-43 99q55 17 90.5 57t8.5 95q-17 37 -46.5 44t-62.5 -3.5t-59 -29.5zM40 0l454 1440h353
l454 -1440h-248l-412 1292h54l-407 -1292h-248zM293 312v225h756v-225h-756z" />
    <glyph glyph-name="uni1EA9" unicode="&#x1ea9;" horiz-adv-x="1152" 
d="M209 1235l274 315h202l273 -315h-225l-149 178l-150 -178h-225zM921 1513l-62 119q56 51 131.5 65t142.5 -15.5t101 -111.5q26 -66 17.5 -121.5t-42 -97.5t-80.5 -67.5t-95 -32.5l-44 99q56 17 91 57t8 95q-17 37 -46.5 44t-62.5 -3.5t-59 -29.5zM442 -30
q-117 0 -198 44.5t-122.5 118.5t-41.5 163q0 78 26 140.5t80 108t140 74.5q65 21 152.5 38t190 31.5t214.5 31.5l-86 -49q1 112 -50 165t-172 53q-73 0 -141 -34t-95 -117l-220 69q40 137 152.5 220t303.5 83q144 0 253.5 -47t162.5 -154q29 -57 35 -116.5t6 -129.5v-663
h-211v234l35 -38q-73 -117 -170.5 -171.5t-243.5 -54.5zM490 162q82 0 140 29t92.5 71t46.5 79q19 46 21.5 105.5t2.5 96.5l74 -22q-109 -17 -187 -30t-134 -24.5t-99 -25.5q-42 -15 -71 -35t-44.5 -46t-15.5 -61q0 -40 20 -70.5t58.5 -48.5t95.5 -18z" />
    <glyph glyph-name="uni1EAA" unicode="&#x1eaa;" horiz-adv-x="1341" 
d="M293 1595l273 315h202l273 -315h-225l-149 178l-150 -178h-224zM844 1960q-47 0 -90.5 21t-83 48.5t-74.5 48.5t-64 21q-32 0 -43.5 -32.5t1.5 -79.5h-152q-29 120 13.5 203.5t159.5 83.5q47 0 90.5 -21t83.5 -48.5t74.5 -48.5t63.5 -21q31 0 43.5 32.5t-1.5 80.5h152
q30 -119 -13 -203.5t-160 -84.5zM40 0l454 1440h353l454 -1440h-248l-412 1292h54l-407 -1292h-248zM293 312v225h756v-225h-756z" />
    <glyph glyph-name="uni1EAB" unicode="&#x1eab;" horiz-adv-x="1152" 
d="M203 1235l273 315h202l273 -315h-225l-149 178l-149 -178h-225zM754 1600q-47 0 -90.5 21t-83 48.5t-74.5 48.5t-64 21q-32 0 -43.5 -32.5t1.5 -79.5h-152q-29 120 14 203.5t159 83.5q47 0 90.5 -21t83.5 -48.5t74.5 -48.5t63.5 -21q32 0 44 32.5t-1 80.5h152
q29 -119 -14 -203.5t-160 -84.5zM442 -30q-117 0 -198 44.5t-122.5 118.5t-41.5 163q0 78 26 140.5t80 108t140 74.5q65 21 152.5 38t190 31.5t214.5 31.5l-86 -49q1 112 -50 165t-172 53q-73 0 -141 -34t-95 -117l-220 69q40 137 152.5 220t303.5 83q144 0 253.5 -47
t162.5 -154q29 -57 35 -116.5t6 -129.5v-663h-211v234l35 -38q-73 -117 -170.5 -171.5t-243.5 -54.5zM490 162q82 0 140 29t92.5 71t46.5 79q19 46 21.5 105.5t2.5 96.5l74 -22q-109 -17 -187 -30t-134 -24.5t-99 -25.5q-42 -15 -71 -35t-44.5 -46t-15.5 -61q0 -40 20 -70.5
t58.5 -48.5t95.5 -18z" />
    <glyph glyph-name="uni1EAC" unicode="&#x1eac;" horiz-adv-x="1341" 
d="M547 -388v221h247v-221h-247zM294 1595l273 315h202l274 -315h-225l-150 178l-149 -178h-225zM40 0l454 1440h353l454 -1440h-248l-412 1292h54l-407 -1292h-248zM293 312v225h756v-225h-756z" />
    <glyph glyph-name="uni1EAD" unicode="&#x1ead;" horiz-adv-x="1152" 
d="M462 -388v221h247v-221h-247zM215 1235l274 315h202l273 -315h-225l-149 178l-150 -178h-225zM442 -30q-117 0 -198 44.5t-122.5 118.5t-41.5 163q0 78 26 140.5t80 108t140 74.5q65 21 152.5 38t190 31.5t214.5 31.5l-86 -49q1 112 -50 165t-172 53q-73 0 -141 -34
t-95 -117l-220 69q40 137 152.5 220t303.5 83q144 0 253.5 -47t162.5 -154q29 -57 35 -116.5t6 -129.5v-663h-211v234l35 -38q-73 -117 -170.5 -171.5t-243.5 -54.5zM490 162q82 0 140 29t92.5 71t46.5 79q19 46 21.5 105.5t2.5 96.5l74 -22q-109 -17 -187 -30t-134 -24.5
t-99 -25.5q-42 -15 -71 -35t-44.5 -46t-15.5 -61q0 -40 20 -70.5t58.5 -48.5t95.5 -18z" />
    <glyph glyph-name="uni1EAE" unicode="&#x1eae;" horiz-adv-x="1341" 
d="M671 1562q-84 0 -153 41t-109.5 109.5t-40.5 152.5h188q0 -48 33.5 -81.5t81.5 -33.5t81.5 33.5t33.5 81.5h188q0 -84 -41 -152.5t-110 -109.5t-152 -41zM766 1955h-183l154 370h183zM40 0l454 1440h353l454 -1440h-248l-412 1292h54l-407 -1292h-248zM293 312v225h756
v-225h-756z" />
    <glyph glyph-name="uni1EAF" unicode="&#x1eaf;" horiz-adv-x="1152" 
d="M584 1202q-84 0 -152.5 41t-109.5 109.5t-41 152.5h188q0 -48 33.5 -81.5t81.5 -33.5t81.5 33.5t33.5 81.5h188q0 -84 -41 -152.5t-109.5 -109.5t-152.5 -41zM679 1595h-182l154 370h183zM442 -30q-117 0 -198 44.5t-122.5 118.5t-41.5 163q0 78 26 140.5t80 108
t140 74.5q65 21 152.5 38t190 31.5t214.5 31.5l-86 -49q1 112 -50 165t-172 53q-73 0 -141 -34t-95 -117l-220 69q40 137 152.5 220t303.5 83q144 0 253.5 -47t162.5 -154q29 -57 35 -116.5t6 -129.5v-663h-211v234l35 -38q-73 -117 -170.5 -171.5t-243.5 -54.5zM490 162
q82 0 140 29t92.5 71t46.5 79q19 46 21.5 105.5t2.5 96.5l74 -22q-109 -17 -187 -30t-134 -24.5t-99 -25.5q-42 -15 -71 -35t-44.5 -46t-15.5 -61q0 -40 20 -70.5t58.5 -48.5t95.5 -18z" />
    <glyph glyph-name="uni1EB0" unicode="&#x1eb0;" horiz-adv-x="1341" 
d="M671 1562q-84 0 -153 41t-109.5 109.5t-40.5 152.5h188q0 -48 33.5 -81.5t81.5 -33.5q47 0 81 33.5t34 81.5h188q0 -84 -41 -152.5t-110 -109.5t-152 -41zM575 1955l-154 370h183l154 -370h-183zM40 0l454 1440h353l454 -1440h-248l-412 1292h54l-407 -1292h-248z
M293 312v225h756v-225h-756z" />
    <glyph glyph-name="uni1EB1" unicode="&#x1eb1;" horiz-adv-x="1152" 
d="M589 1202q-84 0 -152.5 41t-109.5 109.5t-41 152.5h188q0 -48 33.5 -81.5t81.5 -33.5q47 0 81 33.5t34 81.5h188q0 -84 -41 -152.5t-110 -109.5t-152 -41zM493 1595l-154 370h183l154 -370h-183zM442 -30q-117 0 -198 44.5t-122.5 118.5t-41.5 163q0 78 26 140.5t80 108
t140 74.5q65 21 152.5 38t190 31.5t214.5 31.5l-86 -49q1 112 -50 165t-172 53q-73 0 -141 -34t-95 -117l-220 69q40 137 152.5 220t303.5 83q144 0 253.5 -47t162.5 -154q29 -57 35 -116.5t6 -129.5v-663h-211v234l35 -38q-73 -117 -170.5 -171.5t-243.5 -54.5zM490 162
q82 0 140 29t92.5 71t46.5 79q19 46 21.5 105.5t2.5 96.5l74 -22q-109 -17 -187 -30t-134 -24.5t-99 -25.5q-42 -15 -71 -35t-44.5 -46t-15.5 -61q0 -40 20 -70.5t58.5 -48.5t95.5 -18z" />
    <glyph glyph-name="uni1EB2" unicode="&#x1eb2;" horiz-adv-x="1341" 
d="M671 1562q-84 0 -153 41t-109.5 109.5t-40.5 152.5h188q0 -48 33.5 -81.5t81.5 -33.5t81.5 33.5t33.5 81.5h188q0 -84 -41 -152.5t-110 -109.5t-152 -41zM503 2207l-62 119q57 50 132 64t142.5 -15t100.5 -111q27 -66 18 -121.5t-42.5 -98t-80 -68t-95.5 -32.5l-44 99
q56 18 91 58t9 95q-17 36 -47 43t-62.5 -3t-59.5 -29zM40 0l454 1440h353l454 -1440h-248l-412 1292h54l-407 -1292h-248zM293 312v225h756v-225h-756z" />
    <glyph glyph-name="uni1EB3" unicode="&#x1eb3;" horiz-adv-x="1152" 
d="M615 1202q-84 0 -152.5 41t-109.5 109.5t-41 152.5h188q0 -48 33.5 -81.5t81.5 -33.5t81.5 33.5t33.5 81.5h188q0 -84 -41 -152.5t-110 -109.5t-152 -41zM447 1847l-62 119q57 50 132 64t142.5 -15t100.5 -111q27 -66 18 -121.5t-42.5 -98t-80 -68t-95.5 -32.5l-43 99
q55 18 90 58t9 95q-17 36 -47 43t-62.5 -3t-59.5 -29zM442 -30q-117 0 -198 44.5t-122.5 118.5t-41.5 163q0 78 26 140.5t80 108t140 74.5q65 21 152.5 38t190 31.5t214.5 31.5l-86 -49q1 112 -50 165t-172 53q-73 0 -141 -34t-95 -117l-220 69q40 137 152.5 220t303.5 83
q144 0 253.5 -47t162.5 -154q29 -57 35 -116.5t6 -129.5v-663h-211v234l35 -38q-73 -117 -170.5 -171.5t-243.5 -54.5zM490 162q82 0 140 29t92.5 71t46.5 79q19 46 21.5 105.5t2.5 96.5l74 -22q-109 -17 -187 -30t-134 -24.5t-99 -25.5q-42 -15 -71 -35t-44.5 -46
t-15.5 -61q0 -40 20 -70.5t58.5 -48.5t95.5 -18z" />
    <glyph glyph-name="uni1EB4" unicode="&#x1eb4;" horiz-adv-x="1341" 
d="M819 1933q-48 0 -91 21.5t-83 48.5t-74.5 48.5t-63.5 21.5q-33 0 -44 -33t1 -80h-152q-28 121 14.5 204.5t158.5 83.5q48 0 91.5 -21.5t83 -48.5t74 -48.5t64.5 -21.5q31 0 43.5 32.5t-1.5 81.5h152q30 -120 -13 -204.5t-160 -84.5zM648 1562q-83 0 -152 41t-109.5 109.5
t-40.5 152.5h187q0 -48 34 -81.5t81 -33.5q48 0 81.5 33.5t33.5 81.5h188q0 -84 -40.5 -152.5t-109.5 -109.5t-153 -41zM40 0l454 1440h353l454 -1440h-248l-412 1292h54l-407 -1292h-248zM293 312v225h756v-225h-756z" />
    <glyph glyph-name="uni1EB5" unicode="&#x1eb5;" horiz-adv-x="1152" 
d="M751 1573q-47 0 -90.5 21.5t-83 48.5t-74.5 48.5t-64 21.5q-32 0 -43.5 -33t1.5 -80h-152q-29 121 13.5 204.5t159.5 83.5q47 0 90.5 -21.5t83.5 -48.5t74.5 -48.5t63.5 -21.5q31 0 43.5 32.5t-1.5 81.5h152q30 -120 -13 -204.5t-160 -84.5zM581 1202q-84 0 -152.5 41
t-109.5 109.5t-41 152.5h188q0 -48 33.5 -81.5t81.5 -33.5t81.5 33.5t33.5 81.5h188q0 -84 -41 -152.5t-109.5 -109.5t-152.5 -41zM442 -30q-117 0 -198 44.5t-122.5 118.5t-41.5 163q0 78 26 140.5t80 108t140 74.5q65 21 152.5 38t190 31.5t214.5 31.5l-86 -49
q1 112 -50 165t-172 53q-73 0 -141 -34t-95 -117l-220 69q40 137 152.5 220t303.5 83q144 0 253.5 -47t162.5 -154q29 -57 35 -116.5t6 -129.5v-663h-211v234l35 -38q-73 -117 -170.5 -171.5t-243.5 -54.5zM490 162q82 0 140 29t92.5 71t46.5 79q19 46 21.5 105.5t2.5 96.5
l74 -22q-109 -17 -187 -30t-134 -24.5t-99 -25.5q-42 -15 -71 -35t-44.5 -46t-15.5 -61q0 -40 20 -70.5t58.5 -48.5t95.5 -18z" />
    <glyph glyph-name="uni1EB6" unicode="&#x1eb6;" horiz-adv-x="1341" 
d="M547 -388v221h247v-221h-247zM672 1562q-84 0 -153 41t-109.5 109.5t-40.5 152.5h188q0 -48 33.5 -81.5t81.5 -33.5t81.5 33.5t33.5 81.5h188q0 -84 -41 -152.5t-110 -109.5t-152 -41zM40 0l454 1440h353l454 -1440h-248l-412 1292h54l-407 -1292h-248zM293 312v225h756
v-225h-756z" />
    <glyph glyph-name="uni1EB7" unicode="&#x1eb7;" horiz-adv-x="1152" 
d="M462 -388v221h247v-221h-247zM587 1202q-84 0 -152.5 41t-109.5 109.5t-41 152.5h188q0 -48 33.5 -81.5t81.5 -33.5t81.5 33.5t33.5 81.5h188q0 -84 -41 -152.5t-110 -109.5t-152 -41zM442 -30q-117 0 -198 44.5t-122.5 118.5t-41.5 163q0 78 26 140.5t80 108t140 74.5
q65 21 152.5 38t190 31.5t214.5 31.5l-86 -49q1 112 -50 165t-172 53q-73 0 -141 -34t-95 -117l-220 69q40 137 152.5 220t303.5 83q144 0 253.5 -47t162.5 -154q29 -57 35 -116.5t6 -129.5v-663h-211v234l35 -38q-73 -117 -170.5 -171.5t-243.5 -54.5zM490 162q82 0 140 29
t92.5 71t46.5 79q19 46 21.5 105.5t2.5 96.5l74 -22q-109 -17 -187 -30t-134 -24.5t-99 -25.5q-42 -15 -71 -35t-44.5 -46t-15.5 -61q0 -40 20 -70.5t58.5 -48.5t95.5 -18z" />
    <glyph glyph-name="uni1EB8" unicode="&#x1eb8;" horiz-adv-x="1200" 
d="M482 -388v221h246v-221h-246zM140 0v1440h930v-226h-689v-355h569v-226h-569v-407h689v-226h-930z" />
    <glyph glyph-name="uni1EB9" unicode="&#x1eb9;" horiz-adv-x="1204" 
d="M513 -388v221h247v-221h-247zM631 -30q-164 0 -288 71t-193.5 197t-69.5 290q0 177 68 307.5t189 202.5t280 72q168 0 285.5 -78.5t174.5 -221.5t43 -337h-239v88q-1 176 -62 257t-192 81q-148 0 -220 -91.5t-72 -267.5q0 -164 72 -254t210 -90q89 0 153.5 39.5
t99.5 114.5l238 -72q-62 -146 -191.5 -227t-285.5 -81zM259 473v182h743v-182h-743z" />
    <glyph glyph-name="uni1EBA" unicode="&#x1eba;" horiz-adv-x="1170" 
d="M487 1873l-62 119q57 51 132 65t142.5 -15.5t100.5 -111.5q27 -66 18 -121.5t-42.5 -97.5t-80.5 -67.5t-95 -32.5l-44 99q56 17 91 57t9 95q-17 37 -47 44t-62.5 -3.5t-59.5 -29.5zM140 0v1440h930v-226h-689v-355h569v-226h-569v-407h689v-226h-930z" />
    <glyph glyph-name="uni1EBB" unicode="&#x1ebb;" horiz-adv-x="1200" 
d="M495 1520l-62 119q57 50 132 64.5t142.5 -15t100.5 -111.5q27 -66 18 -121.5t-42 -98t-80 -68t-96 -31.5l-43 98q55 18 90 58t9 95q-17 36 -46.5 43t-62.5 -3t-60 -29zM631 -30q-164 0 -288 71t-193.5 197t-69.5 290q0 177 68 307.5t189 202.5t280 72q168 0 285.5 -78.5
t174.5 -221.5t43 -337h-239v88q-1 176 -62 257t-192 81q-148 0 -220 -91.5t-72 -267.5q0 -164 72 -254t210 -90q89 0 153.5 39.5t99.5 114.5l238 -72q-62 -146 -191.5 -227t-285.5 -81zM259 473v182h743v-182h-743z" />
    <glyph glyph-name="uni1EBC" unicode="&#x1ebc;" horiz-adv-x="1170" 
d="M755 1600q-48 0 -91 21t-83 48.5t-74.5 48.5t-63.5 21q-32 0 -43.5 -32.5t0.5 -79.5h-151q-29 120 13.5 203.5t159.5 83.5q47 0 90.5 -21t83 -48.5t74.5 -48.5t64 -21q31 0 43.5 32.5t-1.5 80.5h152q30 -119 -13 -203.5t-160 -84.5zM140 0v1440h930v-226h-689v-355h569
v-226h-569v-407h689v-226h-930z" />
    <glyph glyph-name="uni1EBD" unicode="&#x1ebd;" horiz-adv-x="1204" 
d="M802 1240q-47 0 -90.5 21t-83.5 48.5t-74.5 48.5t-63.5 21q-32 0 -43.5 -32.5t1.5 -79.5h-152q-29 120 13.5 203.5t159.5 83.5q47 0 90.5 -21t83 -48.5t74.5 -48.5t64 -21q31 0 43.5 32.5t-1.5 80.5h152q30 -119 -13 -203.5t-160 -84.5zM631 -30q-164 0 -288 71
t-193.5 197t-69.5 290q0 177 68 307.5t189 202.5t280 72q168 0 285.5 -78.5t174.5 -221.5t43 -337h-239v88q-1 176 -62 257t-192 81q-148 0 -220 -91.5t-72 -267.5q0 -164 72 -254t210 -90q89 0 153.5 39.5t99.5 114.5l238 -72q-62 -146 -191.5 -227t-285.5 -81zM259 473
v182h743v-182h-743z" />
    <glyph glyph-name="uni1EBE" unicode="&#x1ebe;" horiz-adv-x="1170" 
d="M232 1595l274 315h202l273 -315h-225l-149 178l-150 -178h-225zM1119 1805h-183l154 370h183zM140 0v1440h930v-226h-689v-355h569v-226h-569v-407h689v-226h-930z" />
    <glyph glyph-name="uni1EBF" unicode="&#x1ebf;" horiz-adv-x="1204" 
d="M249 1235l273 315h202l273 -315h-225l-149 178l-149 -178h-225zM1135 1445h-183l154 370h183zM631 -30q-164 0 -288 71t-193.5 197t-69.5 290q0 177 68 307.5t189 202.5t280 72q168 0 285.5 -78.5t174.5 -221.5t43 -337h-239v88q-1 176 -62 257t-192 81
q-148 0 -220 -91.5t-72 -267.5q0 -164 72 -254t210 -90q89 0 153.5 39.5t99.5 114.5l238 -72q-62 -146 -191.5 -227t-285.5 -81zM259 473v182h743v-182h-743z" />
    <glyph glyph-name="uni1EC0" unicode="&#x1ec0;" horiz-adv-x="1170" 
d="M259 1595l274 315h201l274 -315h-225l-150 178l-149 -178h-225zM976 1805l-154 370h183l154 -370h-183zM140 0v1440h930v-226h-689v-355h569v-226h-569v-407h689v-226h-930z" />
    <glyph glyph-name="uni1EC1" unicode="&#x1ec1;" horiz-adv-x="1204" 
d="M240 1235l273 315h202l273 -315h-225l-149 178l-150 -178h-224zM956 1445l-154 370h183l154 -370h-183zM631 -30q-164 0 -288 71t-193.5 197t-69.5 290q0 177 68 307.5t189 202.5t280 72q168 0 285.5 -78.5t174.5 -221.5t43 -337h-239v88q-1 176 -62 257t-192 81
q-148 0 -220 -91.5t-72 -267.5q0 -164 72 -254t210 -90q89 0 153.5 39.5t99.5 114.5l238 -72q-62 -146 -191.5 -227t-285.5 -81zM259 473v182h743v-182h-743z" />
    <glyph glyph-name="uni1EC2" unicode="&#x1ec2;" horiz-adv-x="1200" 
d="M238 1595l273 315h202l273 -315h-225l-149 178l-149 -178h-225zM949 1873l-62 119q57 51 132 65t142.5 -15.5t100.5 -111.5q27 -66 18 -121.5t-42.5 -97.5t-80 -67.5t-95.5 -32.5l-44 99q56 17 91 57t9 95q-17 37 -47 44t-62.5 -3.5t-59.5 -29.5zM140 0v1440h930v-226
h-689v-355h569v-226h-569v-407h689v-226h-930z" />
    <glyph glyph-name="uni1EC3" unicode="&#x1ec3;" horiz-adv-x="1204" 
d="M243 1235l273 315h202l273 -315h-225l-149 178l-149 -178h-225zM954 1513l-62 119q57 51 132 65t142.5 -15.5t100.5 -111.5q27 -66 18 -121.5t-42 -97.5t-80 -67.5t-96 -32.5l-43 99q55 17 90 57t9 95q-17 37 -46.5 44t-62.5 -3.5t-60 -29.5zM631 -30q-164 0 -288 71
t-193.5 197t-69.5 290q0 177 68 307.5t189 202.5t280 72q168 0 285.5 -78.5t174.5 -221.5t43 -337h-239v88q-1 176 -62 257t-192 81q-148 0 -220 -91.5t-72 -267.5q0 -164 72 -254t210 -90q89 0 153.5 39.5t99.5 114.5l238 -72q-62 -146 -191.5 -227t-285.5 -81zM259 473
v182h743v-182h-743z" />
    <glyph glyph-name="uni1EC4" unicode="&#x1ec4;" horiz-adv-x="1170" 
d="M227 1595l273 315h202l273 -315h-225l-149 178l-150 -178h-224zM778 1960q-47 0 -90.5 21t-83 48.5t-74.5 48.5t-64 21q-32 0 -43.5 -32.5t1.5 -79.5h-152q-29 120 13.5 203.5t159.5 83.5q47 0 90.5 -21t83.5 -48.5t74.5 -48.5t63.5 -21q31 0 43.5 32.5t-1.5 80.5h152
q30 -119 -13 -203.5t-160 -84.5zM140 0v1440h930v-226h-689v-355h569v-226h-569v-407h689v-226h-930z" />
    <glyph glyph-name="uni1EC5" unicode="&#x1ec5;" horiz-adv-x="1204" 
d="M241 1235l274 315h201l274 -315h-225l-150 178l-149 -178h-225zM793 1600q-48 0 -91 21t-83 48.5t-74.5 48.5t-63.5 21q-32 0 -43.5 -32.5t0.5 -79.5h-151q-29 120 13.5 203.5t158.5 83.5q48 0 91.5 -21t83 -48.5t74.5 -48.5t64 -21q31 0 43.5 32.5t-1.5 80.5h152
q30 -119 -13 -203.5t-160 -84.5zM631 -30q-164 0 -288 71t-193.5 197t-69.5 290q0 177 68 307.5t189 202.5t280 72q168 0 285.5 -78.5t174.5 -221.5t43 -337h-239v88q-1 176 -62 257t-192 81q-148 0 -220 -91.5t-72 -267.5q0 -164 72 -254t210 -90q89 0 153.5 39.5
t99.5 114.5l238 -72q-62 -146 -191.5 -227t-285.5 -81zM259 473v182h743v-182h-743z" />
    <glyph glyph-name="uni1EC6" unicode="&#x1ec6;" horiz-adv-x="1170" 
d="M482 -388v221h246v-221h-246zM217 1595l274 315h202l273 -315h-225l-149 178l-150 -178h-225zM140 0v1440h930v-226h-689v-355h569v-226h-569v-407h689v-226h-930z" />
    <glyph glyph-name="uni1EC7" unicode="&#x1ec7;" horiz-adv-x="1204" 
d="M478 -388v221h247v-221h-247zM240 1235l273 315h202l273 -315h-225l-149 178l-149 -178h-225zM631 -30q-164 0 -288 71t-193.5 197t-69.5 290q0 177 68 307.5t189 202.5t280 72q168 0 285.5 -78.5t174.5 -221.5t43 -337h-239v88q-1 176 -62 257t-192 81
q-148 0 -220 -91.5t-72 -267.5q0 -164 72 -254t210 -90q89 0 153.5 39.5t99.5 114.5l238 -72q-62 -146 -191.5 -227t-285.5 -81zM259 473v182h743v-182h-743z" />
    <glyph glyph-name="uni1EC8" unicode="&#x1ec8;" horiz-adv-x="561" 
d="M123 1873l-63 119q57 51 132 65t142.5 -15.5t100.5 -111.5q27 -66 18 -121.5t-42 -97.5t-80 -67.5t-96 -32.5l-43 99q55 17 90.5 57t8.5 95q-17 37 -46.5 44t-62.5 -3.5t-59 -29.5zM160 0v1440h241v-1440h-241z" />
    <glyph glyph-name="uni1EC9" unicode="&#x1ec9;" horiz-adv-x="561" 
d="M127 1520l-62 119q56 50 131.5 64.5t142.5 -15t101 -111.5q26 -66 17.5 -121.5t-42 -98t-80.5 -68t-95 -31.5l-44 98q56 18 91 58t8 95q-17 36 -46.5 43t-62.5 -3t-59 -29zM160 0v1080h241v-1080h-241z" />
    <glyph glyph-name="uni1ECA" unicode="&#x1eca;" horiz-adv-x="561" 
d="M157 -388v221h247v-221h-247zM160 0v1440h241v-1440h-241z" />
    <glyph glyph-name="uni1ECB" unicode="&#x1ecb;" horiz-adv-x="561" 
d="M157 -388v221h247v-221h-247zM160 1244v221h241v-221h-241zM160 0v1080h241v-1080h-241z" />
    <glyph glyph-name="uni1ECC" unicode="&#x1ecc;" horiz-adv-x="1499" 
d="M622 -388v221h247v-221h-247zM749 -30q-216 0 -370 94.5t-236.5 263.5t-82.5 392t82.5 392t236.5 263.5t370 94.5t370.5 -94.5t237 -263.5t82.5 -392t-82.5 -392t-237 -263.5t-370.5 -94.5zM749 197q145 -1 241.5 64t145 183t48.5 276t-48.5 274.5t-145 181.5t-241.5 67
q-145 1 -241 -64t-144.5 -183t-48.5 -276t48 -274.5t144.5 -181.5t241.5 -67z" />
    <glyph glyph-name="uni1ECD" unicode="&#x1ecd;" horiz-adv-x="1236" 
d="M495 -388v221h246v-221h-246zM617 -30q-162 0 -283 73t-187.5 201.5t-66.5 295.5q0 170 68 298t189 200t280 72q163 0 284 -73t188 -201.5t67 -295.5q0 -168 -67.5 -296.5t-188.5 -201t-283 -72.5zM617 196q144 0 214 96t70 248q0 157 -71 250.5t-213 93.5
q-97 0 -159.5 -43.5t-92.5 -121t-30 -179.5q0 -157 71.5 -250.5t210.5 -93.5z" />
    <glyph glyph-name="uni1ECE" unicode="&#x1ece;" horiz-adv-x="1499" 
d="M651 1873l-62 119q57 51 132 65t142.5 -15.5t100.5 -111.5q27 -66 18 -121.5t-42.5 -97.5t-80 -67.5t-95.5 -32.5l-44 99q56 17 91 57t9 95q-17 37 -47 44t-62.5 -3.5t-59.5 -29.5zM749 -30q-216 0 -370 94.5t-236.5 263.5t-82.5 392t82.5 392t236.5 263.5t370 94.5
t370.5 -94.5t237 -263.5t82.5 -392t-82.5 -392t-237 -263.5t-370.5 -94.5zM749 197q145 -1 241.5 64t145 183t48.5 276t-48.5 274.5t-145 181.5t-241.5 67q-145 1 -241 -64t-144.5 -183t-48.5 -276t48 -274.5t144.5 -181.5t241.5 -67z" />
    <glyph glyph-name="uni1ECF" unicode="&#x1ecf;" horiz-adv-x="1236" 
d="M495 1520l-62 119q57 50 132 64.5t142.5 -15t100.5 -111.5q27 -66 18 -121.5t-42 -98t-80 -68t-96 -31.5l-43 98q55 18 90 58t9 95q-17 36 -46.5 43t-62.5 -3t-60 -29zM617 -30q-162 0 -283 73t-187.5 201.5t-66.5 295.5q0 170 68 298t189 200t280 72q163 0 284 -73
t188 -201.5t67 -295.5q0 -168 -67.5 -296.5t-188.5 -201t-283 -72.5zM617 196q144 0 214 96t70 248q0 157 -71 250.5t-213 93.5q-97 0 -159.5 -43.5t-92.5 -121t-30 -179.5q0 -157 71.5 -250.5t210.5 -93.5z" />
    <glyph glyph-name="uni1ED0" unicode="&#x1ed0;" horiz-adv-x="1499" 
d="M391 1595l273 315h202l273 -315h-225l-149 178l-149 -178h-225zM1277 1805h-183l154 370h183zM749 -30q-216 0 -370 94.5t-236.5 263.5t-82.5 392t82.5 392t236.5 263.5t370 94.5t370.5 -94.5t237 -263.5t82.5 -392t-82.5 -392t-237 -263.5t-370.5 -94.5zM749 197
q145 -1 241.5 64t145 183t48.5 276t-48.5 274.5t-145 181.5t-241.5 67q-145 1 -241 -64t-144.5 -183t-48.5 -276t48 -274.5t144.5 -181.5t241.5 -67z" />
    <glyph glyph-name="uni1ED1" unicode="&#x1ed1;" horiz-adv-x="1236" 
d="M255 1235l273 315h202l273 -315h-225l-149 178l-149 -178h-225zM1141 1445h-183l154 370h183zM617 -30q-162 0 -283 73t-187.5 201.5t-66.5 295.5q0 170 68 298t189 200t280 72q163 0 284 -73t188 -201.5t67 -295.5q0 -168 -67.5 -296.5t-188.5 -201t-283 -72.5zM617 196
q144 0 214 96t70 248q0 157 -71 250.5t-213 93.5q-97 0 -159.5 -43.5t-92.5 -121t-30 -179.5q0 -157 71.5 -250.5t210.5 -93.5z" />
    <glyph glyph-name="uni1ED2" unicode="&#x1ed2;" horiz-adv-x="1499" 
d="M372 1595l273 315h202l273 -315h-225l-149 178l-149 -178h-225zM1089 1805l-155 370h183l155 -370h-183zM749 -30q-216 0 -370 94.5t-236.5 263.5t-82.5 392t82.5 392t236.5 263.5t370 94.5t370.5 -94.5t237 -263.5t82.5 -392t-82.5 -392t-237 -263.5t-370.5 -94.5z
M749 197q145 -1 241.5 64t145 183t48.5 276t-48.5 274.5t-145 181.5t-241.5 67q-145 1 -241 -64t-144.5 -183t-48.5 -276t48 -274.5t144.5 -181.5t241.5 -67z" />
    <glyph glyph-name="uni1ED3" unicode="&#x1ed3;" horiz-adv-x="1236" 
d="M257 1235l274 315h201l274 -315h-225l-150 178l-149 -178h-225zM974 1445l-154 370h183l154 -370h-183zM617 -30q-162 0 -283 73t-187.5 201.5t-66.5 295.5q0 170 68 298t189 200t280 72q163 0 284 -73t188 -201.5t67 -295.5q0 -168 -67.5 -296.5t-188.5 -201t-283 -72.5
zM617 196q144 0 214 96t70 248q0 157 -71 250.5t-213 93.5q-97 0 -159.5 -43.5t-92.5 -121t-30 -179.5q0 -157 71.5 -250.5t210.5 -93.5z" />
    <glyph glyph-name="uni1ED4" unicode="&#x1ed4;" horiz-adv-x="1499" 
d="M377 1595l273 315h202l274 -315h-225l-150 178l-149 -178h-225zM1089 1873l-63 119q57 51 132 65t142.5 -15.5t100.5 -111.5q27 -66 18 -121.5t-42 -97.5t-80 -67.5t-96 -32.5l-43 99q55 17 90.5 57t8.5 95q-17 37 -46.5 44t-62.5 -3.5t-59 -29.5zM749 -30
q-216 0 -370 94.5t-236.5 263.5t-82.5 392t82.5 392t236.5 263.5t370 94.5t370.5 -94.5t237 -263.5t82.5 -392t-82.5 -392t-237 -263.5t-370.5 -94.5zM749 197q145 -1 241.5 64t145 183t48.5 276t-48.5 274.5t-145 181.5t-241.5 67q-145 1 -241 -64t-144.5 -183t-48.5 -276
t48 -274.5t144.5 -181.5t241.5 -67z" />
    <glyph glyph-name="uni1ED5" unicode="&#x1ed5;" horiz-adv-x="1236" 
d="M240 1235l274 315h202l273 -315h-225l-149 178l-150 -178h-225zM952 1513l-62 119q56 51 131.5 65t142.5 -15.5t101 -111.5q26 -66 17.5 -121.5t-42 -97.5t-80.5 -67.5t-95 -32.5l-44 99q56 17 91 57t8 95q-17 37 -46.5 44t-62.5 -3.5t-59 -29.5zM617 -30q-162 0 -283 73
t-187.5 201.5t-66.5 295.5q0 170 68 298t189 200t280 72q163 0 284 -73t188 -201.5t67 -295.5q0 -168 -67.5 -296.5t-188.5 -201t-283 -72.5zM617 196q144 0 214 96t70 248q0 157 -71 250.5t-213 93.5q-97 0 -159.5 -43.5t-92.5 -121t-30 -179.5q0 -157 71.5 -250.5
t210.5 -93.5z" />
    <glyph glyph-name="uni1ED6" unicode="&#x1ed6;" horiz-adv-x="1499" 
d="M364 1595l274 315h201l274 -315h-225l-150 178l-149 -178h-225zM916 1960q-48 0 -91 21t-83 48.5t-74.5 48.5t-63.5 21q-32 0 -43.5 -32.5t0.5 -79.5h-151q-29 120 13.5 203.5t158.5 83.5q48 0 91.5 -21t83 -48.5t74.5 -48.5t64 -21q31 0 43.5 32.5t-1.5 80.5h152
q30 -119 -13 -203.5t-160 -84.5zM749 -30q-216 0 -370 94.5t-236.5 263.5t-82.5 392t82.5 392t236.5 263.5t370 94.5t370.5 -94.5t237 -263.5t82.5 -392t-82.5 -392t-237 -263.5t-370.5 -94.5zM749 197q145 -1 241.5 64t145 183t48.5 276t-48.5 274.5t-145 181.5t-241.5 67
q-145 1 -241 -64t-144.5 -183t-48.5 -276t48 -274.5t144.5 -181.5t241.5 -67z" />
    <glyph glyph-name="uni1ED7" unicode="&#x1ed7;" horiz-adv-x="1236" 
d="M268 1235l274 315h202l273 -315h-225l-149 178l-150 -178h-225zM820 1600q-47 0 -90.5 21t-83.5 48.5t-74.5 48.5t-63.5 21q-32 0 -43.5 -32.5t1.5 -79.5h-152q-29 120 13.5 203.5t159.5 83.5q47 0 90.5 -21t83 -48.5t74.5 -48.5t64 -21q31 0 43.5 32.5t-1.5 80.5h152
q30 -119 -13 -203.5t-160 -84.5zM617 -30q-162 0 -283 73t-187.5 201.5t-66.5 295.5q0 170 68 298t189 200t280 72q163 0 284 -73t188 -201.5t67 -295.5q0 -168 -67.5 -296.5t-188.5 -201t-283 -72.5zM617 196q144 0 214 96t70 248q0 157 -71 250.5t-213 93.5
q-97 0 -159.5 -43.5t-92.5 -121t-30 -179.5q0 -157 71.5 -250.5t210.5 -93.5z" />
    <glyph glyph-name="uni1ED8" unicode="&#x1ed8;" horiz-adv-x="1499" 
d="M372 1595l273 315h202l273 -315h-225l-149 178l-149 -178h-225zM626 -388v221h247v-221h-247zM749 -30q-216 0 -370 94.5t-236.5 263.5t-82.5 392t82.5 392t236.5 263.5t370 94.5t370.5 -94.5t237 -263.5t82.5 -392t-82.5 -392t-237 -263.5t-370.5 -94.5zM749 197
q145 -1 241.5 64t145 183t48.5 276t-48.5 274.5t-145 181.5t-241.5 67q-145 1 -241 -64t-144.5 -183t-48.5 -276t48 -274.5t144.5 -181.5t241.5 -67z" />
    <glyph glyph-name="uni1ED9" unicode="&#x1ed9;" horiz-adv-x="1236" 
d="M514 -388v221h247v-221h-247zM241 1235l274 315h202l273 -315h-225l-149 178l-150 -178h-225zM617 -30q-162 0 -283 73t-187.5 201.5t-66.5 295.5q0 170 68 298t189 200t280 72q163 0 284 -73t188 -201.5t67 -295.5q0 -168 -67.5 -296.5t-188.5 -201t-283 -72.5zM617 196
q144 0 214 96t70 248q0 157 -71 250.5t-213 93.5q-97 0 -159.5 -43.5t-92.5 -121t-30 -179.5q0 -157 71.5 -250.5t210.5 -93.5z" />
    <glyph glyph-name="uni1EDA" unicode="&#x1eda;" horiz-adv-x="1499" 
d="M1132 1618l182 1q15 -109 -9.5 -181t-91.5 -106q-62 -30 -143.5 -25.5t-140.5 39.5v105q46 -12 78 -15t60 10q51 24 58.5 71.5t6.5 100.5zM851 1595h-183l154 370h183zM749 -30q-216 0 -370 94.5t-236.5 263.5t-82.5 392t82.5 392t236.5 263.5t370 94.5t370.5 -94.5
t237 -263.5t82.5 -392t-82.5 -392t-237 -263.5t-370.5 -94.5zM749 197q145 -1 241.5 64t145 183t48.5 276t-48.5 274.5t-145 181.5t-241.5 67q-145 1 -241 -64t-144.5 -183t-48.5 -276t48 -274.5t144.5 -181.5t241.5 -67z" />
    <glyph glyph-name="uni1EDB" unicode="&#x1edb;" horiz-adv-x="1245" 
d="M969 1259l182 1q14 -109 -10.5 -181t-90.5 -105q-62 -31 -143.5 -26t-140.5 40v104q46 -11 78 -14.5t60 9.5q51 24 58.5 72t6.5 100zM712 1235h-183l154 370h183zM617 -30q-162 0 -283 73t-187.5 201.5t-66.5 295.5q0 170 68 298t189 200t280 72q163 0 284 -73
t188 -201.5t67 -295.5q0 -168 -67.5 -296.5t-188.5 -201t-283 -72.5zM617 196q144 0 214 96t70 248q0 157 -71 250.5t-213 93.5q-97 0 -159.5 -43.5t-92.5 -121t-30 -179.5q0 -157 71.5 -250.5t210.5 -93.5z" />
    <glyph glyph-name="uni1EDC" unicode="&#x1edc;" horiz-adv-x="1499" 
d="M1132 1618l182 1q15 -109 -9.5 -181t-91.5 -106q-62 -30 -143.5 -25.5t-140.5 39.5v105q46 -12 78 -15t60 10q51 24 58.5 71.5t6.5 100.5zM636 1595l-154 370h182l155 -370h-183zM749 -30q-216 0 -370 94.5t-236.5 263.5t-82.5 392t82.5 392t236.5 263.5t370 94.5
t370.5 -94.5t237 -263.5t82.5 -392t-82.5 -392t-237 -263.5t-370.5 -94.5zM749 197q145 -1 241.5 64t145 183t48.5 276t-48.5 274.5t-145 181.5t-241.5 67q-145 1 -241 -64t-144.5 -183t-48.5 -276t48 -274.5t144.5 -181.5t241.5 -67z" />
    <glyph glyph-name="uni1EDD" unicode="&#x1edd;" horiz-adv-x="1245" 
d="M969 1259l182 1q14 -109 -10.5 -181t-90.5 -105q-62 -31 -143.5 -26t-140.5 40v104q46 -11 78 -14.5t60 9.5q51 24 58.5 72t6.5 100zM515 1235l-155 370h183l155 -370h-183zM617 -30q-162 0 -283 73t-187.5 201.5t-66.5 295.5q0 170 68 298t189 200t280 72q163 0 284 -73
t188 -201.5t67 -295.5q0 -168 -67.5 -296.5t-188.5 -201t-283 -72.5zM617 196q144 0 214 96t70 248q0 157 -71 250.5t-213 93.5q-97 0 -159.5 -43.5t-92.5 -121t-30 -179.5q0 -157 71.5 -250.5t210.5 -93.5z" />
    <glyph glyph-name="uni1EDE" unicode="&#x1ede;" horiz-adv-x="1499" 
d="M1132 1618l182 1q15 -109 -9.5 -181t-91.5 -106q-62 -30 -143.5 -25.5t-140.5 39.5v105q46 -12 78 -15t60 10q51 24 58.5 71.5t6.5 100.5zM651 1873l-62 119q57 51 132 65t142.5 -15.5t100.5 -111.5q27 -66 18 -121.5t-42.5 -97.5t-80 -67.5t-95.5 -32.5l-44 99
q56 17 91 57t9 95q-17 37 -47 44t-62.5 -3.5t-59.5 -29.5zM749 -30q-216 0 -370 94.5t-236.5 263.5t-82.5 392t82.5 392t236.5 263.5t370 94.5t370.5 -94.5t237 -263.5t82.5 -392t-82.5 -392t-237 -263.5t-370.5 -94.5zM749 197q145 -1 241.5 64t145 183t48.5 276
t-48.5 274.5t-145 181.5t-241.5 67q-145 1 -241 -64t-144.5 -183t-48.5 -276t48 -274.5t144.5 -181.5t241.5 -67z" />
    <glyph glyph-name="uni1EDF" unicode="&#x1edf;" horiz-adv-x="1236" 
d="M495 1520l-62 119q57 50 132 64.5t142.5 -15t100.5 -111.5q27 -66 18 -121.5t-42 -98t-80 -68t-96 -31.5l-43 98q55 18 90 58t9 95q-17 36 -46.5 43t-62.5 -3t-60 -29zM969 1259l182 1q14 -109 -10.5 -181t-90.5 -105q-62 -31 -143.5 -26t-140.5 40v104q46 -11 78 -14.5
t60 9.5q51 24 58.5 72t6.5 100zM617 -30q-162 0 -283 73t-187.5 201.5t-66.5 295.5q0 170 68 298t189 200t280 72q163 0 284 -73t188 -201.5t67 -295.5q0 -168 -67.5 -296.5t-188.5 -201t-283 -72.5zM617 196q144 0 214 96t70 248q0 157 -71 250.5t-213 93.5
q-97 0 -159.5 -43.5t-92.5 -121t-30 -179.5q0 -157 71.5 -250.5t210.5 -93.5z" />
    <glyph glyph-name="uni1EE0" unicode="&#x1ee0;" horiz-adv-x="1499" 
d="M1132 1618l182 1q15 -109 -9.5 -181t-91.5 -106q-62 -30 -143.5 -25.5t-140.5 39.5v105q46 -12 78 -15t60 10q51 24 58.5 71.5t6.5 100.5zM749 -30q-216 0 -370 94.5t-236.5 263.5t-82.5 392t82.5 392t236.5 263.5t370 94.5t370.5 -94.5t237 -263.5t82.5 -392t-82.5 -392
t-237 -263.5t-370.5 -94.5zM749 197q145 -1 241.5 64t145 183t48.5 276t-48.5 274.5t-145 181.5t-241.5 67q-145 1 -241 -64t-144.5 -183t-48.5 -276t48 -274.5t144.5 -181.5t241.5 -67zM914 1600q-47 0 -90.5 21t-83 48.5t-74.5 48.5t-64 21q-32 0 -43.5 -32.5t1.5 -79.5
h-152q-29 120 13.5 203.5t159.5 83.5q47 0 90.5 -21t83.5 -48.5t74.5 -48.5t63.5 -21q31 0 43.5 32.5t-1.5 80.5h152q30 -119 -13 -203.5t-160 -84.5z" />
    <glyph glyph-name="uni1EE1" unicode="&#x1ee1;" horiz-adv-x="1236" 
d="M802 1240q-47 0 -90.5 21t-83.5 48.5t-74.5 48.5t-63.5 21q-32 0 -43.5 -32.5t1.5 -79.5h-152q-29 120 13.5 203.5t159.5 83.5q47 0 90.5 -21t83 -48.5t74.5 -48.5t64 -21q31 0 43.5 32.5t-1.5 80.5h152q30 -119 -13 -203.5t-160 -84.5zM969 1259l182 1
q14 -109 -10.5 -181t-90.5 -105q-62 -31 -143.5 -26t-140.5 40v104q46 -11 78 -14.5t60 9.5q51 24 58.5 72t6.5 100zM617 -30q-162 0 -283 73t-187.5 201.5t-66.5 295.5q0 170 68 298t189 200t280 72q163 0 284 -73t188 -201.5t67 -295.5q0 -168 -67.5 -296.5t-188.5 -201
t-283 -72.5zM617 196q144 0 214 96t70 248q0 157 -71 250.5t-213 93.5q-97 0 -159.5 -43.5t-92.5 -121t-30 -179.5q0 -157 71.5 -250.5t210.5 -93.5z" />
    <glyph glyph-name="uni1EE2" unicode="&#x1ee2;" horiz-adv-x="1499" 
d="M646 -388v221h247v-221h-247zM1132 1618l182 1q15 -109 -9.5 -181t-91.5 -106q-62 -30 -143.5 -25.5t-140.5 39.5v105q46 -12 78 -15t60 10q51 24 58.5 71.5t6.5 100.5zM749 -30q-216 0 -370 94.5t-236.5 263.5t-82.5 392t82.5 392t236.5 263.5t370 94.5t370.5 -94.5
t237 -263.5t82.5 -392t-82.5 -392t-237 -263.5t-370.5 -94.5zM749 197q145 -1 241.5 64t145 183t48.5 276t-48.5 274.5t-145 181.5t-241.5 67q-145 1 -241 -64t-144.5 -183t-48.5 -276t48 -274.5t144.5 -181.5t241.5 -67z" />
    <glyph glyph-name="uni1EE3" unicode="&#x1ee3;" horiz-adv-x="1236" 
d="M513 -388v221h247v-221h-247zM969 1259l182 1q14 -109 -10.5 -181t-90.5 -105q-62 -31 -143.5 -26t-140.5 40v104q46 -11 78 -14.5t60 9.5q51 24 58.5 72t6.5 100zM617 -30q-162 0 -283 73t-187.5 201.5t-66.5 295.5q0 170 68 298t189 200t280 72q163 0 284 -73
t188 -201.5t67 -295.5q0 -168 -67.5 -296.5t-188.5 -201t-283 -72.5zM617 196q144 0 214 96t70 248q0 157 -71 250.5t-213 93.5q-97 0 -159.5 -43.5t-92.5 -121t-30 -179.5q0 -157 71.5 -250.5t210.5 -93.5z" />
    <glyph glyph-name="uni1EE4" unicode="&#x1ee4;" horiz-adv-x="1440" 
d="M630 -388v221h247v-221h-247zM720 -30q-172 0 -302.5 70t-204 197t-73.5 298v903l244 2v-899q0 -81 27.5 -145t74.5 -108.5t108 -67.5t126 -23q67 0 127.5 23.5t107.5 68t74 108.5t27 144v899h244v-905q0 -171 -73.5 -298t-204 -197t-302.5 -70z" />
    <glyph glyph-name="uni1EE5" unicode="&#x1ee5;" 
d="M503 -388v221h247v-221h-247zM545 -31q-120 0 -198 40t-124 102t-68 132t-28.5 132.5t-6.5 101.5v603h244v-520q0 -50 7 -112.5t32.5 -120t76 -94.5t136.5 -37q46 0 91 15t81.5 51.5t58.5 100.5t22 162l143 -61q0 -138 -53.5 -250t-157.5 -178.5t-256 -66.5zM898 0v335
h-29v745h242v-1080h-213z" />
    <glyph glyph-name="uni1EE6" unicode="&#x1ee6;" horiz-adv-x="1440" 
d="M611 1873l-62 119q56 51 131 65t142.5 -15.5t101.5 -111.5q26 -66 17.5 -121.5t-42 -97.5t-80.5 -67.5t-95 -32.5l-44 99q56 17 91 57t8 95q-17 37 -46.5 44t-62.5 -3.5t-59 -29.5zM720 -30q-172 0 -302.5 70t-204 197t-73.5 298v903l244 2v-899q0 -81 27.5 -145
t74.5 -108.5t108 -67.5t126 -23q67 0 127.5 23.5t107.5 68t74 108.5t27 144v899h244v-905q0 -171 -73.5 -298t-204 -197t-302.5 -70z" />
    <glyph glyph-name="uni1EE7" unicode="&#x1ee7;" 
d="M495 1520l-62 119q57 50 132 64.5t142.5 -15t100.5 -111.5q27 -66 18 -121.5t-42 -98t-80 -68t-96 -31.5l-43 98q55 18 90 58t9 95q-17 36 -46.5 43t-62.5 -3t-60 -29zM545 -31q-120 0 -198 40t-124 102t-68 132t-28.5 132.5t-6.5 101.5v603h244v-520q0 -50 7 -112.5
t32.5 -120t76 -94.5t136.5 -37q46 0 91 15t81.5 51.5t58.5 100.5t22 162l143 -61q0 -138 -53.5 -250t-157.5 -178.5t-256 -66.5zM898 0v335h-29v745h242v-1080h-213z" />
    <glyph glyph-name="uni1EE8" unicode="&#x1ee8;" horiz-adv-x="1440" 
d="M1360 1619l182 1q15 -109 -11 -177.5t-89 -104.5q-60 -35 -135.5 -36t-138.5 6v132q22 0 42 0.5t40 4.5q76 13 93.5 64.5t16.5 109.5zM806 1595h-183l154 370h183zM720 -30q-172 0 -302.5 70t-204 197t-73.5 298v903l244 2v-899q0 -81 27.5 -145t74.5 -108.5t108 -67.5
t126 -23q67 0 127.5 23.5t107.5 68t74 108.5t27 144v899h244v-905q0 -171 -73.5 -298t-204 -197t-302.5 -70z" />
    </font>
</defs>
</svg>
